<?xml version="1.0" standalone="no"?>
<!DOCTYPE svg PUBLIC "-//W3C//DTD SVG 1.1//EN" "http://www.w3.org/Graphics/SVG/1.1/DTD/svg11.dtd" >
<svg xmlns="http://www.w3.org/2000/svg">
<metadata>
<json>
<![CDATA[
{
	"fontFamily": "wojoicons",
	"fontURL": "http://www.wojoscripts.com",
	"designer": "wojoscripts",
	"designerURL": "http://www.wojoscripts.com",
	"license": "Apache License, Version 2.0",
	"licenseURL": "http://www.apache.org/licenses/LICENSE-2.0.html",
	"description": "Web Components Icon Font\nFont generated by IcoMoon.",
	"copyright": "wojoscripts",
	"majorVersion": 1,
	"minorVersion": 0,
	"version": "Version 1.0",
	"fontId": "wojoicons",
	"psName": "wojoicons",
	"subFamily": "Regular",
	"fullName": "wojoicons"
}
]]>
</json>
</metadata>
<defs>
<font id="wojoicons" horiz-adv-x="1024">
<font-face units-per-em="1024" ascent="960" descent="-64" />
<missing-glyph horiz-adv-x="1024" />
<glyph unicode="&#x20;" horiz-adv-x="0" d="" />
<glyph unicode="&#xe900;" d="M256 460.8c0-28.16-23.040-51.2-51.2-51.2h-102.4c-28.16 0-51.2 23.040-51.2 51.2s23.040 51.2 51.2 51.2h102.4c28.16 0 51.2-23.040 51.2-51.2zM921.6 512h-102.4c-28.16 0-51.2-23.040-51.2-51.2s23.040-51.2 51.2-51.2h102.4c28.16 0 51.2 23.040 51.2 51.2s-23.040 51.2-51.2 51.2z" />
<glyph unicode="&#xe901;" d="M614.4 716.8v-512c0-28.16 23.040-51.2 51.2-51.2s51.2 23.040 51.2 51.2v512c0 28.16-23.040 51.2-51.2 51.2s-51.2-23.040-51.2-51.2zM307.2 716.8v-512c0-28.16 23.040-51.2 51.2-51.2s51.2 23.040 51.2 51.2v512c0 28.16-23.040 51.2-51.2 51.2s-51.2-23.040-51.2-51.2z" />
<glyph unicode="&#xe902;" d="M614.4 460.8c0-28.16-23.040-51.2-51.2-51.2h-102.4c-28.16 0-51.2 23.040-51.2 51.2s23.040 51.2 51.2 51.2h102.4c28.16 0 51.2-23.040 51.2-51.2z" />
<glyph unicode="&#xe903;" d="M716.8 716.8v-512c0-28.16 23.040-51.2 51.2-51.2s51.2 23.040 51.2 51.2v512c0 28.16-23.040 51.2-51.2 51.2s-51.2-23.040-51.2-51.2zM204.8 716.8v-512c0-28.16 23.040-51.2 51.2-51.2s51.2 23.040 51.2 51.2v512c0 28.16-23.040 51.2-51.2 51.2s-51.2-23.040-51.2-51.2z" />
<glyph unicode="&#xe904;" d="M819.2 51.2h-614.4c-28.16 0-51.2 23.040-51.2 51.2s23.040 51.2 51.2 51.2h614.4c28.16 0 51.2-23.040 51.2-51.2s-23.040-51.2-51.2-51.2z" />
<glyph unicode="&#xe905;" d="M512 256c-28.16 0-51.2 23.040-51.2 51.2v307.2c0 28.16 23.040 51.2 51.2 51.2s51.2-23.040 51.2-51.2v-307.2c0-28.16-23.040-51.2-51.2-51.2zM358.4 307.2v512c0 28.16-23.040 51.2-51.2 51.2s-51.2-23.040-51.2-51.2v-512c0-28.16 23.040-51.2 51.2-51.2s51.2 23.040 51.2 51.2z" />
<glyph unicode="&#xe906;" d="M512 665.6c-28.16 0-51.2 23.040-51.2 51.2v102.4c0 28.16 23.040 51.2 51.2 51.2s51.2-23.040 51.2-51.2v-102.4c0-28.16-23.040-51.2-51.2-51.2zM563.2 102.4v102.4c0 28.16-23.040 51.2-51.2 51.2s-51.2-23.040-51.2-51.2v-102.4c0-28.16 23.040-51.2 51.2-51.2s51.2 23.040 51.2 51.2z" />
<glyph unicode="&#xe907;" d="M716.8 563.2c0-28.16-23.040-51.2-51.2-51.2h-307.2c-28.16 0-51.2 23.040-51.2 51.2s23.040 51.2 51.2 51.2h307.2c28.16 0 51.2-23.040 51.2-51.2zM768 409.6h-512c-28.16 0-51.2-23.040-51.2-51.2s23.040-51.2 51.2-51.2h512c28.16 0 51.2 23.040 51.2 51.2s-23.040 51.2-51.2 51.2z" />
<glyph unicode="&#xe908;" d="M921.6 768v-614.4c0-28.16-23.040-51.2-51.2-51.2s-51.2 23.040-51.2 51.2v614.4c0 28.16 23.040 51.2 51.2 51.2s51.2-23.040 51.2-51.2z" />
<glyph unicode="&#xe909;" d="M716.8 460.8c0-28.16-23.040-51.2-51.2-51.2h-307.2c-28.16 0-51.2 23.040-51.2 51.2s23.040 51.2 51.2 51.2h307.2c28.16 0 51.2-23.040 51.2-51.2zM665.6 307.2h-512c-28.16 0-51.2-23.040-51.2-51.2s23.040-51.2 51.2-51.2h512c28.16 0 51.2 23.040 51.2 51.2s-23.040 51.2-51.2 51.2z" />
<glyph unicode="&#xe90a;" d="M102.4 153.6v614.4c0 28.16 23.040 51.2 51.2 51.2s51.2-23.040 51.2-51.2v-614.4c0-28.16-23.040-51.2-51.2-51.2s-51.2 23.040-51.2 51.2z" />
<glyph unicode="&#xe90b;" d="M307.2 460.8c0 28.16 23.040 51.2 51.2 51.2h307.2c28.16 0 51.2-23.040 51.2-51.2s-23.040-51.2-51.2-51.2h-307.2c-28.16 0-51.2 23.040-51.2 51.2zM358.4 614.4h512c28.16 0 51.2 23.040 51.2 51.2s-23.040 51.2-51.2 51.2h-512c-28.16 0-51.2-23.040-51.2-51.2s23.040-51.2 51.2-51.2z" />
<glyph unicode="&#xe90c;" d="M204.8 870.4h614.4c28.16 0 51.2-23.040 51.2-51.2s-23.040-51.2-51.2-51.2h-614.4c-28.16 0-51.2 23.040-51.2 51.2s23.040 51.2 51.2 51.2z" />
<glyph unicode="&#xe90d;" d="M512 665.6c28.16 0 51.2-23.040 51.2-51.2v-307.2c0-28.16-23.040-51.2-51.2-51.2s-51.2 23.040-51.2 51.2v307.2c0 28.16 23.040 51.2 51.2 51.2zM665.6 614.4v-512c0-28.16 23.040-51.2 51.2-51.2s51.2 23.040 51.2 51.2v512c0 28.16-23.040 51.2-51.2 51.2s-51.2-23.040-51.2-51.2z" />
<glyph unicode="&#xe90e;" d="M307.2 460.8c0-28.16-23.040-51.2-51.2-51.2h-102.4c-28.16 0-51.2 23.040-51.2 51.2s23.040 51.2 51.2 51.2h102.4c28.16 0 51.2-23.040 51.2-51.2zM870.4 512h-102.4c-28.16 0-51.2-23.040-51.2-51.2s23.040-51.2 51.2-51.2h102.4c28.16 0 51.2 23.040 51.2 51.2s-23.040 51.2-51.2 51.2z" />
<glyph unicode="&#xe90f;" d="M409.6 665.6c28.16 0 51.2-23.040 51.2-51.2v-307.2c0-28.16-23.040-51.2-51.2-51.2s-51.2 23.040-51.2 51.2v307.2c0 28.16 23.040 51.2 51.2 51.2zM563.2 716.8v-512c0-28.16 23.040-51.2 51.2-51.2s51.2 23.040 51.2 51.2v512c0 28.16-23.040 51.2-51.2 51.2s-51.2-23.040-51.2-51.2z" />
<glyph unicode="&#xe910;" d="M1024 665.6h-1024v51.2c0 112.64 92.16 204.8 204.8 204.8h614.4c112.64 0 204.8-92.16 204.8-204.8v-51.2z" />
<glyph unicode="&#xe911;" d="M51.2 563.2v-409.6c0-112.64 92.16-204.8 204.8-204.8h512c112.64 0 204.8 92.16 204.8 204.8v409.6h-921.6zM665.6 358.4c0-28.16-23.040-51.2-51.2-51.2h-204.8c-28.16 0-51.2 23.040-51.2 51.2v51.2c0 28.16 23.040 51.2 51.2 51.2h204.8c28.16 0 51.2-23.040 51.2-51.2v-51.2z" />
<glyph unicode="&#xe912;" d="M819.2 870.4h-614.4c-28.16 0-51.2-23.040-51.2-51.2s23.040-51.2 51.2-51.2h614.4c28.16 0 51.2 23.040 51.2 51.2s-23.040 51.2-51.2 51.2z" />
<glyph unicode="&#xe913;" d="M729.6 391.68l-166.4-166.4v389.12c0 28.16-23.040 51.2-51.2 51.2s-51.2-23.040-51.2-51.2v-389.12l-166.4 166.4-71.68-71.68 253.44-253.44c20.48-20.48 51.2-20.48 71.68 0l253.44 253.44-71.68 71.68z" />
<glyph unicode="&#xe914;" d="M921.6 768v-614.4c0-28.16-23.040-51.2-51.2-51.2s-51.2 23.040-51.2 51.2v614.4c0 28.16 23.040 51.2 51.2 51.2s51.2-23.040 51.2-51.2z" />
<glyph unicode="&#xe915;" d="M442.88 678.4l-166.4-166.4h389.12c28.16 0 51.2-23.040 51.2-51.2s-23.040-51.2-51.2-51.2h-389.12l166.4-166.4-71.68-71.68-253.44 253.44c-20.48 20.48-20.48 51.2 0 71.68l253.44 253.44 71.68-71.68z" />
<glyph unicode="&#xe916;" d="M102.4 153.6v614.4c0 28.16 23.040 51.2 51.2 51.2s51.2-23.040 51.2-51.2v-614.4c0-28.16-23.040-51.2-51.2-51.2s-51.2 23.040-51.2 51.2z" />
<glyph unicode="&#xe917;" d="M581.12 243.2l166.4 166.4h-389.12c-28.16 0-51.2 23.040-51.2 51.2s23.040 51.2 51.2 51.2h389.12l-166.4 166.4 71.68 71.68 253.44-253.44c20.48-20.48 20.48-51.2 0-71.68l-253.44-253.44-71.68 71.68z" />
<glyph unicode="&#xe918;" d="M819.2 51.2h-614.4c-28.16 0-51.2 23.040-51.2 51.2s23.040 51.2 51.2 51.2h614.4c28.16 0 51.2-23.040 51.2-51.2s-23.040-51.2-51.2-51.2z" />
<glyph unicode="&#xe919;" d="M729.6 529.92l-166.4 166.4v-389.12c0-28.16-23.040-51.2-51.2-51.2s-51.2 23.040-51.2 51.2v389.12l-166.4-166.4-71.68 71.68 253.44 253.44c20.48 20.48 51.2 20.48 71.68 0l253.44-253.44-71.68-71.68z" />
<glyph unicode="&#xe91a;" d="M870.4 563.2h-69.12c-43.52 125.44-166.4 212.48-307.2 204.8-156.16-10.24-281.6-138.24-289.28-294.4-7.68-174.080 133.12-320 307.2-320 122.88 0 227.84 71.68 276.48 176.64 7.68 17.92 25.6 28.16 46.080 28.16 38.4 0 61.44-40.96 46.080-74.24-66.56-140.8-209.92-235.52-376.32-232.96-225.28 5.12-401.92 194.56-401.92 422.4v5.12c0 148.48 87.040 289.28 222.72 350.72 227.84 102.4 448 5.12 545.28-171.52v-94.72z" />
<glyph unicode="&#xe91b;" d="M972.8 512v307.2h-102.4v-256h-256v-102.4h307.2c28.16 0 51.2 23.040 51.2 51.2z" />
<glyph unicode="&#xe91c;" d="M153.6 563.2h69.12c43.52 125.44 166.4 212.48 307.2 204.8 156.16-10.24 281.6-138.24 289.28-294.4 7.68-174.080-133.12-320-307.2-320-122.88 0-227.84 71.68-276.48 176.64-7.68 17.92-25.6 28.16-46.080 28.16-38.4 0-61.44-40.96-46.080-74.24 66.56-140.8 209.92-235.52 376.32-232.96 225.28 5.12 401.92 194.56 401.92 422.4v5.12c0 148.48-87.040 289.28-222.72 350.72-227.84 102.4-448 5.12-545.28-171.52v-94.72z" />
<glyph unicode="&#xe91d;" d="M51.2 512v307.2h102.4v-256h256v-102.4h-307.2c-28.16 0-51.2 23.040-51.2 51.2z" />
<glyph unicode="&#xe91e;" d="M512 185.6l51.2 54.080v579.52c0 28.16-23.040 51.2-51.2 51.2s-51.2-23.040-51.2-51.2v-579.52l51.2-54.080z" />
<glyph unicode="&#xe91f;" d="M844.8 380.96l-74.24 79.84-207.36-221.6-51.2-54.080-51.2 54.080-207.36 221.6-74.24-79.84 258.56-275.68 35.84-38.56c20.48-20.64 53.76-20.64 74.24 0l35.84 38.72 261.12 275.52z" />
<glyph unicode="&#xe920;" d="M512 736l51.2-54.080v-579.52c0-28.16-23.040-51.2-51.2-51.2s-51.2 23.040-51.2 51.2v579.52l51.2 54.080z" />
<glyph unicode="&#xe921;" d="M844.8 540.64l-74.24-79.84-207.36 221.6-51.2 54.080-51.2-54.080-207.36-221.6-74.24 79.84 258.56 275.68 35.84 38.56c20.48 20.64 53.76 20.64 74.24 0l35.84-38.72 261.12-275.52z" />
<glyph unicode="&#xe922;" d="M236.8 460.8l54.080-51.2h579.52c28.16 0 51.2 23.040 51.2 51.2s-23.040 51.2-51.2 51.2h-579.52l-54.080-51.2z" />
<glyph unicode="&#xe923;" d="M432.16 128l79.84 74.24-221.6 207.36-54.080 51.2 54.080 51.2 221.6 207.36-79.84 74.24-275.68-258.56-38.56-35.84c-20.64-20.48-20.64-53.76 0-74.24l38.72-35.84 275.52-261.12z" />
<glyph unicode="&#xe924;" d="M787.2 460.8l-54.080-51.2h-579.52c-28.16 0-51.2 23.040-51.2 51.2s23.040 51.2 51.2 51.2h579.52l54.080-51.2z" />
<glyph unicode="&#xe925;" d="M591.84 128l-79.84 74.24 221.6 207.36 54.080 51.2-54.080 51.2-221.6 207.36 79.84 74.24 275.68-258.56 38.56-35.84c20.64-20.48 20.64-53.76 0-74.24l-38.72-35.84-275.52-261.12z" />
<glyph unicode="&#xe926;" d="M855.36 731.68l-526.88-526.88h-72.48v72.48l526.88 526.88c20 20 52.48 20 72.48 0s20-52.48 0-72.48z" />
<glyph unicode="&#xe927;" d="M665.6 204.8v-102.4h-460.8c-28.32 0-51.2 22.88-51.2 51.2v460.8h102.4v-409.6h409.6z" />
<glyph unicode="&#xe928;" d="M168.64 731.68l526.88-526.88h72.48v72.48l-526.88 526.88c-20 20-52.48 20-72.48 0s-20-52.48 0-72.48z" />
<glyph unicode="&#xe929;" d="M358.4 204.8v-102.4h460.8c28.32 0 51.2 22.88 51.2 51.2v460.8h-102.4v-409.6h-409.6z" />
<glyph unicode="&#xe92a;" d="M855.36 189.92l-526.88 526.88h-72.48v-72.48l526.88-526.88c20-20 52.48-20 72.48 0s20 52.48 0 72.48z" />
<glyph unicode="&#xe92b;" d="M665.6 716.8v102.4h-460.8c-28.32 0-51.2-22.88-51.2-51.2v-460.8h102.4v409.6h409.6z" />
<glyph unicode="&#xe92c;" d="M168.64 189.92l526.88 526.88h72.48v-72.48l-526.88-526.88c-20-20-52.48-20-72.48 0s-20 52.48 0 72.48z" />
<glyph unicode="&#xe92d;" d="M358.4 716.8v102.4h460.8c28.32 0 51.2-22.88 51.2-51.2v-460.8h-102.4v409.6h-409.6z" />
<glyph unicode="&#xe92e;" d="M819.2 409.6h-614.4c-28.16 0-51.2 23.040-51.2 51.2s23.040 51.2 51.2 51.2h614.4c28.16 0 51.2-23.040 51.2-51.2s-23.040-51.2-51.2-51.2z" />
<glyph unicode="&#xe92f;" d="M729.6 757.76l-145.92-143.36-35.84-35.84c-20.48-20.48-53.76-20.48-71.68 0l-35.84 35.84-145.92 143.36 71.68 71.68 94.72-92.16v184.32c0 28.16 23.040 51.2 51.2 51.2s51.2-23.040 51.2-51.2v-184.32l94.72 94.72 71.68-74.24zM729.6 163.84l-145.92 143.36-35.84 35.84c-20.48 20.48-53.76 20.48-71.68 0l-35.84-35.84-145.92-143.36 71.68-71.68 94.72 94.72v-186.88c0-28.16 23.040-51.2 51.2-51.2s51.2 23.040 51.2 51.2v184.32l94.72-94.72 71.68 74.24z" />
<glyph unicode="&#xe930;" d="M819.2 409.6h-614.4c-28.16 0-51.2 23.040-51.2 51.2s23.040 51.2 51.2 51.2h614.4c28.16 0 51.2-23.040 51.2-51.2s-23.040-51.2-51.2-51.2z" />
<glyph unicode="&#xe931;" d="M294.4 778.24l145.92 143.36 35.84 35.84c20.48 20.48 53.76 20.48 71.68 0l35.84-35.84 145.92-143.36-71.68-71.68-94.72 92.16v-184.32c0-28.16-23.040-51.2-51.2-51.2s-51.2 23.040-51.2 51.2v184.32l-94.72-94.72-71.68 74.24zM294.4 143.36l145.92-143.36 35.84-35.84c20.48-20.48 53.76-20.48 71.68 0l35.84 35.84 145.92 143.36-71.68 71.68-94.72-92.16v184.32c0 28.16-23.040 51.2-51.2 51.2s-51.2-23.040-51.2-51.2v-184.32l-94.72 94.72-71.68-74.24z" />
<glyph unicode="&#xe932;" d="M453.12 327.68l-176.64-174.080h-71.68v71.68l174.080 174.080c20.48 20.48 51.2 20.48 71.68 0s20.48-51.2 2.56-71.68zM819.2 225.28l-174.080 174.080c-20.48 20.48-51.2 20.48-71.68 0s-20.48-51.2 0-71.68l174.080-174.080h71.68v71.68zM747.52 768l-174.080-174.080c-20.48-20.48-20.48-51.2 0-71.68s51.2-20.48 71.68 0l174.080 174.080v71.68h-71.68zM276.48 768h-71.68v-71.68l174.080-174.080c20.48-20.48 51.2-20.48 71.68 0s20.48 51.2 0 71.68l-174.080 174.080z" />
<glyph unicode="&#xe933;" d="M460.8 153.6v-102.4h-307.2c-28.16 0-51.2 23.040-51.2 51.2v307.2h102.4v-256h256zM819.2 409.6v-256h-256v-102.4h307.2c28.16 0 51.2 23.040 51.2 51.2v307.2h-102.4zM870.4 870.4h-307.2v-102.4h256v-256h102.4v307.2c0 28.16-23.040 51.2-51.2 51.2zM204.8 870.4h-51.2c-28.16 0-51.2-23.040-51.2-51.2v-307.2h102.4v256h256v102.4h-256z" />
<glyph unicode="&#xe934;" d="M164.64 462.080l51.2 49.92h142.56c28.16 0 51.2-23.040 51.2-51.2s-23.040-51.2-51.2-51.2h-140l-0.96 0.96-52.8 51.52zM807.2 512h-141.6c-28.16 0-51.2-23.040-51.2-51.2s23.040-51.2 51.2-51.2h141.6l52.16 51.2-52.16 51.2zM460.8 756v-141.6c0-28.16 23.040-51.2 51.2-51.2s51.2 23.040 51.2 51.2v141.6l-51.2 52.16-51.2-52.16zM563.2 168.96v138.24c0 28.16-23.040 51.2-51.2 51.2s-51.2-23.040-51.2-51.2v-143.52l48.64-50.080 53.76 55.36z" />
<glyph unicode="&#xe935;" d="M218.4 409.6l88.8-89.12-65.92-64.48-176.96 172.64c-7.84 10.24-13.12 20.64-13.12 33.44 0 12.96 5.28 23.2 13.12 30.88l176.96 172.64 65.92-64.48-142.56-139.040 53.76-52.48zM545.76 908.48c-10.4 7.84-20.8 13.12-33.76 13.12s-23.36-5.28-31.040-13.12l-173.76-176.96 64.8-65.92 140 142.56 140-142.56 64.8 65.92-171.040 176.96zM647.68 256l-138.24-142.4-138.24 142.4-64-65.92 171.52-176.8c7.68-7.84 20.48-13.12 33.28-13.12s23.040 5.28 33.28 13.12l171.52 176.8-69.12 65.92zM959.68 491.84l-176.96 173.76-65.92-64.8 142.56-140-142.56-140 65.92-64.8 176.8 173.76c7.84 7.84 13.12 20.8 13.12 33.76 0.16 12.8-5.12 18.080-12.96 28.32z" />
<glyph unicode="&#xe936;" d="M460.8 665.6h-256v-256h102.4v153.6h153.6v102.4zM819.2 256v256h-102.4v-153.6h-153.6v-102.4h256z" />
<glyph unicode="&#xe937;" d="M0 665.6c0 113.12 91.68 204.8 204.8 204.8h614.4c113.12 0 204.8-91.68 204.8-204.8v-409.6c0-113.12-91.68-204.8-204.8-204.8h-614.4c-113.12 0-204.8 91.68-204.8 204.8v409.6zM204.8 768c-56.48 0-102.4-45.92-102.4-102.4v-409.6c0-56.48 45.92-102.4 102.4-102.4h614.4c56.48 0 102.4 45.92 102.4 102.4v409.6c0 56.48-45.92 102.4-102.4 102.4h-614.4z" />
<glyph unicode="&#xe938;" glyph-name="asterisk" data-tags="asterisk" d="M512 563.2c-28.16 0-51.2 23.040-51.2 51.2v204.8c0 28.16 23.040 51.2 51.2 51.2s51.2-23.040 51.2-51.2v-204.8c0-28.16-23.040-51.2-51.2-51.2zM563.2 102.4v204.8c0 28.16-23.040 51.2-51.2 51.2s-51.2-23.040-51.2-51.2v-204.8c0-28.16 23.040-51.2 51.2-51.2s51.2 23.040 51.2 51.2zM611.84 404.48c15.36 25.6 46.080 33.28 69.12 17.92l166.4-97.28c25.6-15.36 33.28-46.080 17.92-69.12-15.36-25.6-46.080-33.28-69.12-17.92l-166.4 94.72c-25.6 15.36-33.28 46.080-17.92 71.68zM176.64 596.48l166.4-97.28c25.6-15.36 56.32-5.12 69.12 17.92 15.36 25.6 5.12 56.32-17.92 69.12l-166.4 97.28c-25.6 15.36-56.32 5.12-69.12-17.92-15.36-25.6-7.68-56.32 17.92-69.12zM412.16 404.48c15.36-25.6 5.12-56.32-17.92-69.12l-166.4-97.28c-25.6-15.36-56.32-5.12-69.12 17.92-15.36 25.6-5.12 56.32 17.92 69.12l166.4 97.28c25.6 15.36 56.32 5.12 69.12-17.92zM796.16 683.52l-166.4-94.72c-25.6-15.36-33.28-46.080-17.92-69.12 15.36-25.6 46.080-33.28 69.12-17.92l166.4 97.28c25.6 15.36 33.28 46.080 17.92 69.12-12.8 23.040-43.52 30.72-69.12 15.36z" />
<glyph unicode="&#xe939;" d="M665.6 208.8l1.76 0.16c36.96 2.88 71.2 15.36 100.64 34.88v-243.84c0-28.32-22.88-51.2-51.2-51.2h-51.2c-5.44 0-11.040 0.96-16.16 2.56l-137.44 45.92-137.44-45.76c-5.28-1.76-10.72-2.56-16.16-2.56h-51.2c-28.32 0-51.2 22.88-51.2 51.2v243.68c29.44-19.52 63.68-32 100.64-34.88l1.76-0.16v-154.88l137.44 45.76c10.56 3.52 21.92 3.52 32.32 0l137.44-45.76v154.88zM512 665.6c-56.48 0-102.4-45.92-102.4-102.4s45.92-102.4 102.4-102.4 102.4 45.92 102.4 102.4-45.92 102.4-102.4 102.4zM307.2 563.2c0 113.12 91.68 204.8 204.8 204.8s204.8-91.68 204.8-204.8-91.68-204.8-204.8-204.8-204.8 91.68-204.8 204.8z" />
<glyph unicode="&#xe93a;" d="M659.36 918.080l8-0.64c106.56-8.48 191.68-96.32 200.48-207.2 71.68-83.84 71.68-210.24 0-294.080-8.8-110.88-93.76-198.72-200.48-207.2l-8-0.64c-85.92-72.96-209.12-72.96-294.88 0l-8 0.64c-106.56 8.48-191.68 96.32-200.48 207.2-71.68 83.84-71.68 210.24 0 294.080 8.8 110.88 93.76 198.72 200.48 207.2l8 0.64c85.92 72.96 209.12 72.96 294.88 0zM512 256c169.6 0 307.2 137.6 307.2 307.2s-137.6 307.2-307.2 307.2-307.2-137.6-307.2-307.2 137.6-307.2 307.2-307.2z" />
<glyph unicode="&#xe93b;" d="M256 204.8c0-113.12 91.68-204.8 204.8-204.8h307.2c113.12 0 204.8 91.68 204.8 204.8v307.2c0 113.12-91.68 204.8-204.8 204.8v-307.2c0-113.12-91.68-204.8-204.8-204.8h-307.2z" />
<glyph unicode="&#xe93c;" d="M51.2 716.8c0 113.12 91.68 204.8 204.8 204.8h307.2c113.12 0 204.8-91.68 204.8-204.8v-307.2c0-113.12-91.68-204.8-204.8-204.8h-307.2c-113.12 0-204.8 91.68-204.8 204.8v307.2zM256 819.2c-56.48 0-102.4-45.92-102.4-102.4v-307.2c0-56.48 45.92-102.4 102.4-102.4h307.2c56.48 0 102.4 45.92 102.4 102.4v307.2c0 56.48-45.92 102.4-102.4 102.4h-307.2z" />
<glyph unicode="&#xe93d;" d="M788.48 819.2h-367.36c-38.24 0.48-72.48-10.56-102.24-29.44-17.6-11.040-31.36-23.36-38.88-32.16-4.8-5.12-183.2-196.16-190.24-204.48-55.36-65.12-47.36-129.28 0-188.96 12-15.040 44-47.84 90.72-96.64 1.6-1.76 92-94.72 97.92-100.8 4.96-6.56 19.040-20 37.44-32.16 30.4-20.32 65.12-31.84 105.12-32.16h367.36c101.76 0 184.32 80.16 184.32 179.2v358.4c0.16 98.88-82.56 179.2-184.16 179.2zM870.4 281.6c0-42.4-36.8-76.8-81.92-76.8h-367.36c-17.6 0.16-33.28 4.96-48.48 15.040-7.2 4.8-12.64 9.6-14.72 11.68l-2.080 2.72-120.64 124.16c-29.92 31.040-58.080 60.32-65.28 69.44-24.16 30.56-18.56 39.52-2.080 58.88 10.56 11.84 177.28 190.56 186.56 200.48l3.2 3.52c1.28 1.28 7.040 6.88 15.84 12.48 14.72 9.28 29.12 13.6 45.6 13.6h369.28c45.12 0 81.92-34.4 81.92-76.8v-358.4z" />
<glyph unicode="&#xe93e;" d="M496.96 599.36c-20 20-52.48 20-72.48 0s-20-52.48 0-72.48l66.24-66.24-66.24-66.24c-20-20-20-52.48 0-72.48s52.48-20 72.48 0l66.24 66.24 66.24-66.24c20-20 52.48-20 72.48 0s20 52.48 0 72.48l-66.24 66.4 66.24 66.24c20 20 20 52.48 0 72.48s-52.48 20-72.48 0l-66.24-66.24-66.24 66.080z" />
<glyph unicode="&#xe93f;" d="M870.4 768h-716.8c-56.32 0-102.4-46.080-102.4-102.4v-512c0-112.64 92.16-204.8 204.8-204.8h512c112.64 0 204.8 92.16 204.8 204.8v512c0 56.32-46.080 102.4-102.4 102.4zM409.6 435.2c0-15.36-10.24-25.6-25.6-25.6h-51.2c-15.36 0-25.6 10.24-25.6 25.6v51.2c0 15.36 10.24 25.6 25.6 25.6h51.2c15.36 0 25.6-10.24 25.6-25.6v-51.2zM716.8 435.2c0-15.36-10.24-25.6-25.6-25.6h-51.2c-15.36 0-25.6 10.24-25.6 25.6v51.2c0 15.36 10.24 25.6 25.6 25.6h51.2c15.36 0 25.6-10.24 25.6-25.6v-51.2z" />
<glyph unicode="&#xe940;" d="M716.8 691.2c0-15.36-10.24-25.6-25.6-25.6h-51.2c-15.36 0-25.6 10.24-25.6 25.6v76.8c0 58.88-51.2 107.52-112.64 102.4-53.76-5.12-92.16-53.76-92.16-107.52v-71.68c0-15.36-10.24-25.6-25.6-25.6h-51.2c-15.36 0-25.6 10.24-25.6 35.84v61.44c0 110.080 81.92 204.8 192 212.48 117.76 5.12 217.6-89.6 217.6-207.36v-76.8z" />
<glyph unicode="&#xe941;" d="M460.8 665.6c-56.48 0-102.4-45.92-102.4-102.4v-409.6c0-56.48 45.92-102.4 102.4-102.4h102.4c56.48 0 102.4 45.92 102.4 102.4v409.6c0 56.48-45.92 102.4-102.4 102.4h-102.4zM460.8 563.2h102.4v-409.6h-102.4v409.6zM102.4 460.8c-56.48 0-102.4-45.92-102.4-102.4v-204.8c0-56.48 45.92-102.4 102.4-102.4h102.4c56.48 0 102.4 45.92 102.4 102.4v204.8c0 56.48-45.92 102.4-102.4 102.4h-102.4zM102.4 358.4h102.4v-204.8h-102.4v204.8z" />
<glyph unicode="&#xe942;" d="M716.8 768c0 56.48 45.92 102.4 102.4 102.4h102.4c56.48 0 102.4-45.92 102.4-102.4v-614.4c0-56.48-45.92-102.4-102.4-102.4h-102.4c-56.48 0-102.4 45.92-102.4 102.4v614.4zM921.6 768h-102.4v-614.4h102.4v614.4z" />
<glyph unicode="&#xe943;" d="M102.4 921.6c28.32 0 51.2-22.88 51.2-51.2v-665.6c0-56.48 45.92-102.4 102.4-102.4h665.6c28.32 0 51.2-22.88 51.2-51.2s-22.88-51.2-51.2-51.2h-665.6c-113.12 0-204.8 91.68-204.8 204.8v665.6c0 28.32 22.88 51.2 51.2 51.2z" />
<glyph unicode="&#xe944;" d="M870.4 256h-563.2c-28.32 0-51.2 22.88-51.2 51.2s22.88 51.2 51.2 51.2h563.2c28.32 0 51.2-22.88 51.2-51.2s-22.88-51.2-51.2-51.2zM768 716.8c0 28.32-22.88 51.2-51.2 51.2h-409.6c-28.32 0-51.2-22.88-51.2-51.2s22.88-51.2 51.2-51.2h409.6c28.32 0 51.2 22.88 51.2 51.2zM665.6 512c0 28.32-22.88 51.2-51.2 51.2h-307.2c-28.32 0-51.2-22.88-51.2-51.2s22.88-51.2 51.2-51.2h307.2c28.32 0 51.2 22.88 51.2 51.2z" />
<glyph unicode="&#xe945;" d="M716.8 768c0 56.48 45.92 102.4 102.4 102.4h102.4c56.48 0 102.4-45.92 102.4-102.4v-665.6c0 28.32-22.88 51.2-51.2 51.2h-51.2v614.4h-102.4v-614.4h-102.4v614.4zM665.6 153.6v460.8c0 56.48-45.92 102.4-102.4 102.4h-102.4c-56.48 0-102.4-45.92-102.4-102.4v-460.8h102.4v460.8h102.4v-460.8h102.4zM307.2 153.6v256c0 56.48-45.92 102.4-102.4 102.4h-102.4c-56.48 0-102.4-45.92-102.4-102.4v-307.2c0 28.32 22.88 51.2 51.2 51.2h51.2v256h102.4v-256h102.4z" />
<glyph unicode="&#xe946;" d="M0 102.4c0 28.32 22.88 51.2 51.2 51.2h921.6c28.32 0 51.2-22.88 51.2-51.2s-22.88-51.2-51.2-51.2h-921.6c-28.32 0-51.2 22.88-51.2 51.2z" />
<glyph unicode="&#xe947;" d="M204.8 819.2v-716.8c0-28.32-22.88-51.2-51.2-51.2s-51.2 22.88-51.2 51.2v716.8c0 28.32 22.88 51.2 51.2 51.2s51.2-22.88 51.2-51.2z" />
<glyph unicode="&#xe948;" d="M819.2 102.4h-307.2c-28.32 0-51.2 22.88-51.2 51.2s22.88 51.2 51.2 51.2h307.2c28.32 0 51.2-22.88 51.2-51.2s-22.88-51.2-51.2-51.2zM716.8 768c0 28.32-22.88 51.2-51.2 51.2h-307.2c-28.32 0-51.2-22.88-51.2-51.2s22.88-51.2 51.2-51.2h307.2c28.32 0 51.2 22.88 51.2 51.2zM768 563.2c0 28.32-22.88 51.2-51.2 51.2h-307.2c-28.32 0-51.2-22.88-51.2-51.2s22.88-51.2 51.2-51.2h307.2c28.32 0 51.2 22.88 51.2 51.2zM819.2 358.4c0 28.32-22.88 51.2-51.2 51.2h-307.2c-28.32 0-51.2-22.88-51.2-51.2s22.88-51.2 51.2-51.2h307.2c28.32 0 51.2 22.88 51.2 51.2z" />
<glyph unicode="&#xe949;" d="M512 460.8c-30.72 0-51.2 20.48-51.2 51.2v358.4c0 30.72 20.48 51.2 51.2 51.2s51.2-20.48 51.2-51.2v-358.4c0-30.72-20.48-51.2-51.2-51.2zM824.32 0h-624.64c-25.6 0-51.2 20.48-56.32 46.080l-92.16 363.52h921.6l-92.16-363.52c-5.12-25.6-30.72-46.080-56.32-46.080zM563.2 153.6v153.6c0 30.72-20.48 51.2-51.2 51.2s-51.2-20.48-51.2-51.2v-153.6c0-30.72 20.48-51.2 51.2-51.2s51.2 20.48 51.2 51.2zM768 153.6v153.6c0 30.72-20.48 51.2-51.2 51.2s-51.2-20.48-51.2-51.2v-153.6c0-30.72 20.48-51.2 51.2-51.2s51.2 20.48 51.2 51.2zM358.4 153.6v153.6c0 30.72-20.48 51.2-51.2 51.2s-51.2-20.48-51.2-51.2v-153.6c0-30.72 20.48-51.2 51.2-51.2s51.2 20.48 51.2 51.2z" />
<glyph unicode="&#xe94a;" d="M972.8 563.2h-409.6v-51.2c0-30.72-20.48-51.2-51.2-51.2s-51.2 20.48-51.2 51.2v51.2h-409.6c-30.72 0-51.2-20.48-51.2-51.2v-102.4h1024v102.4c0 30.72-20.48 51.2-51.2 51.2z" />
<glyph unicode="&#xe94b;" d="M102.4 409.6c45.44-224 62.56-256.16 62.56-256.16 25.12-57.6 92.8-102.24 156.48-102.24h381.28c63.68 0 131.36 44.64 156.48 102.24 0 0 17.12 32.16 62.56 256.16h-204.8v-153.6c0-24.8-26.080-51.2-51.2-51.2s-51.2 26.4-51.2 51.2v153.6h-204.8v-153.6c0-24.8-26.080-51.2-51.2-51.2s-51.2 26.4-51.2 51.2v153.6h-204.96z" />
<glyph unicode="&#xe94c;" d="M302.24 865.6c22.72-11.040 32-37.92 20.64-60.16l-47.68-114.24h473.6l-47.68 114.4c-11.36 22.080-2.080 48.96 20.64 60.16 22.72 11.040 50.4 2.080 61.76-20l79.36-154.4h20.16c50.88 0 89.6-40.16 89.6-89.6v-89.6h-921.44v89.6c0 49.44 38.72 89.6 89.6 89.6h20.16l79.36 154.4c11.52 21.92 39.2 31.040 61.92 19.84z" />
<glyph unicode="&#xe94d;" glyph-name="battery" data-tags="battery" d="M755.2 716.8h-640c-63.68 0-115.2-51.52-115.2-115.2v-281.6c0-63.68 51.52-115.2 115.2-115.2h640c63.68 0 115.2 51.52 115.2 115.2v281.6c0 63.68-51.52 115.2-115.2 115.2zM768 320c0-7.040-5.76-12.8-12.8-12.8h-640c-7.040 0-12.8 5.76-12.8 12.8v281.6c0 7.040 5.76 12.8 12.8 12.8h640c7.040 0 12.8-5.76 12.8-12.8v-281.6zM921.6 256v409.6c56.48 0 102.4-45.92 102.4-102.4v-204.8c0-56.48-45.92-102.4-102.4-102.4z" />
<glyph unicode="&#xe94e;" d="M1024 563.2v-204.8c0-56.48-45.92-102.4-102.4-102.4v409.6c56.48 0 102.4-45.92 102.4-102.4zM115.2 307.2c-7.040 0-12.8 5.76-12.8 12.8v281.6c0 7.040 5.76 12.8 12.8 12.8h192v102.4h-192c-63.68 0-115.2-51.52-115.2-115.2v-281.6c0-63.68 51.52-115.2 115.2-115.2h192v102.4h-192zM755.2 716.8h-140.8v-102.4h140.8c7.040 0 12.8-5.76 12.8-12.8v-281.6c0-7.040-5.76-12.8-12.8-12.8h-140.8v-102.4h140.8c63.68 0 115.2 51.52 115.2 115.2v281.6c0 63.68-51.52 115.2-115.2 115.2z" />
<glyph unicode="&#xe94f;" d="M512 537.6v281.6l-307.2-384h204.8v-332.8l307.2 435.2h-204.8z" />
<glyph unicode="&#xe950;" d="M755.2 716.8h-640c-63.68 0-115.2-51.52-115.2-115.2v-281.6c0-63.68 51.52-115.2 115.2-115.2h640c63.68 0 115.2 51.52 115.2 115.2v281.6c0 63.68-51.52 115.2-115.2 115.2zM768 320c0-7.040-5.76-12.8-12.8-12.8h-640c-7.040 0-12.8 5.76-12.8 12.8v281.6c0 7.040 5.76 12.8 12.8 12.8h640c7.040 0 12.8-5.76 12.8-12.8v-281.6zM921.6 256v409.6c56.48 0 102.4-45.92 102.4-102.4v-204.8c0-56.48-45.92-102.4-102.4-102.4z" />
<glyph unicode="&#xe951;" d="M716.8 358.4h-563.2v204.8h563.2v-204.8z" />
<glyph unicode="&#xe952;" d="M755.2 716.8h-640c-63.68 0-115.2-51.52-115.2-115.2v-281.6c0-63.68 51.52-115.2 115.2-115.2h640c63.68 0 115.2 51.52 115.2 115.2v281.6c0 63.68-51.52 115.2-115.2 115.2zM768 320c0-7.040-5.76-12.8-12.8-12.8h-640c-7.040 0-12.8 5.76-12.8 12.8v281.6c0 7.040 5.76 12.8 12.8 12.8h640c7.040 0 12.8-5.76 12.8-12.8v-281.6zM921.6 256v409.6c56.48 0 102.4-45.92 102.4-102.4v-204.8c0-56.48-45.92-102.4-102.4-102.4z" />
<glyph unicode="&#xe953;" d="M460.8 358.4h-307.2v204.8h307.2v-204.8z" />
<glyph unicode="&#xe954;" d="M358.4 0c0 28.32 22.88 51.2 51.2 51.2h204.8c28.32 0 51.2-22.88 51.2-51.2s-22.88-51.2-51.2-51.2h-204.8c-28.32 0-51.2 22.88-51.2 51.2z" />
<glyph unicode="&#xe955;" d="M204.8 665.6c0 169.6 137.6 307.2 307.2 307.2s307.2-137.6 307.2-307.2v-89.92c0-27.2 10.72-53.28 29.92-72.48l78.56-78.56c28.8-28.8 44.96-67.84 44.96-108.64v-8.8c0-84.8-68.8-153.6-153.6-153.6h-614.24c-84.8 0-153.6 68.8-153.6 153.6v8.8c0 40.8 16.16 79.84 44.96 108.64l78.56 78.56c19.2 19.2 29.92 45.28 29.92 72.48v89.92zM512 870.4c-113.12 0-204.8-91.68-204.8-204.8v-89.92c0-54.24-21.6-106.4-60-144.8l-78.56-78.56c-9.6-9.6-15.040-22.56-15.040-36.16v-8.8c0-28.32 22.88-51.2 51.2-51.2h614.4c28.32 0 51.2 22.88 51.2 51.2v8.8c0 13.6-5.44 26.56-15.040 36.16l-78.56 78.56c-38.4 38.4-60 90.56-60 144.8v89.92c0 113.12-91.68 204.8-204.8 204.8z" />
<glyph unicode="&#xe956;" horiz-adv-x="1229" d="M505.6 307.2h104.64c-24.32-145.28-150.72-256-302.88-256-169.76 0-307.36 137.6-307.36 307.2s137.6 307.2 307.2 307.2c21.28 0 42.080-2.24 62.080-6.24l30.88-46.4-34.88-58.24c-18.4 5.44-37.92 8.48-58.080 8.48-112.96 0-204.8-91.84-204.8-204.8s91.84-204.8 204.8-204.8c95.2 0 175.52 65.44 198.4 153.6zM921.6 665.6c-35.040 0-68.8-5.92-100.16-16.64l50.080-91.84c16 4 32.8 6.24 50.080 6.24 112.96 0 204.8-91.84 204.8-204.8s-91.84-204.8-204.8-204.8-204.8 91.84-204.8 204.8c0 58.88 24.96 112 64.96 149.44l-8.48 15.68-114.88-191.52c-8.48-14.24-23.36-23.36-39.68-24.64 24.16-145.44 150.56-256.32 302.88-256.32 169.6 0 307.2 137.6 307.2 307.2s-137.6 307.2-307.2 307.2z" />
<glyph unicode="&#xe957;" horiz-adv-x="1229" d="M966.56 382.88l-224.48 411.68c-18.72 34.24 5.92 75.84 44.8 75.84h109.12c28.32 0 51.2 22.88 51.2 51.2s-22.88 51.2-51.2 51.2h-109.12c-116.64 0-190.72-124.8-134.88-227.2l43.68-80h-207.52l-34.080 51.2h6.72c28.32 0 51.2 22.88 51.2 51.2s-22.88 51.2-51.2 51.2h-204.8c-28.32 0-51.2-22.88-51.2-51.2s22.88-51.2 51.2-51.2h75.040l38.4-57.44 30.88-46.4-34.88-58.24-102.080-170.080c-9.44-15.84-9.76-35.52-0.64-51.52s26.080-25.92 44.48-25.92h307.36c1.44 0 2.88 0.16 4.32 0.16 16.32 1.28 31.2 10.4 39.68 24.64l114.88 191.52 8.48-15.68 94.88-173.92c13.6-24.8 44.64-33.92 69.44-20.48 24.64 13.6 33.92 44.64 20.32 69.44zM397.6 409.6l55.36 92.32c24.96-25.28 43.36-56.96 52.48-92.32h-107.84zM603.52 439.68c-12.8 46.56-36.16 88.64-67.36 123.52h141.44l-74.080-123.52z" />
<glyph unicode="&#xe958;" d="M255.84 768c0 28.32 22.88 51.2 51.2 51.2s51.2-22.88 51.2-51.2v-51.2c0-28.32 22.88-51.2 51.2-51.2h204.96c28.32 0 51.2 22.88 51.2 51.2v51.2c0 28.32 22.88 51.2 51.2 51.2s51.2-22.88 51.2-51.2v-51.2c0-28.32 22.88-51.2 51.2-51.2h10.72c26.080 0 48-19.68 50.88-45.6l20.64-186.080c64.16-34.080 110.4-97.6 120.48-172.64l1.76 0.16-41.12 369.76c-7.040 63.84-52.8 115.040-112.32 131.2v5.6c0 84.8-68.8 153.6-153.76 153.6-84.48 0-153.28-68.8-153.28-153.6h-102.4c0 84.8-68.8 153.6-153.76 153.6s-153.76-68.8-153.76-153.6v-5.44c-59.52-16.16-105.12-67.36-112.32-131.2l-40.96-369.76 1.76-0.16c10.080 74.88 56.32 138.56 120.48 172.64l20.64 186.080c2.88 25.92 24.8 45.6 50.88 45.6h10.72c28.32 0 51.2 22.88 51.2 51.2v51.040zM459.36 256c-7.68 68.96-45.76 128.8-100.64 165.76 6.24 79.040 72.48 141.44 153.28 141.44s147.040-62.4 153.28-141.44c-54.88-36.96-92.96-96.64-100.64-165.76h-1.44v153.6c0 28.32-22.88 51.2-51.2 51.2s-51.2-22.88-51.2-51.2v-153.6h-1.44z" />
<glyph unicode="&#xe959;" d="M102.4 230.4c0 70.72 57.28 128 128 128s128-57.28 128-128-57.28-128-128-128-128 57.28-128 128zM230.4 460.8c-127.2 0-230.4-103.2-230.4-230.4s103.2-230.4 230.4-230.4 230.4 103.2 230.4 230.4-103.2 230.4-230.4 230.4zM665.6 230.4c0 70.72 57.28 128 128 128s128-57.28 128-128-57.28-128-128-128-128 57.28-128 128zM793.6 460.8c-127.2 0-230.4-103.2-230.4-230.4s103.2-230.4 230.4-230.4 230.4 103.2 230.4 230.4-103.2 230.4-230.4 230.4z" />
<glyph unicode="&#xe95a;" d="M870.4 665.6h-716.8c-28.32 0-51.2 22.88-51.2 51.2s22.88 51.2 51.2 51.2h716.8c28.32 0 51.2-22.88 51.2-51.2s-22.88-51.2-51.2-51.2zM921.6 204.8c0 28.32-22.88 51.2-51.2 51.2h-716.8c-28.32 0-51.2-22.88-51.2-51.2s22.88-51.2 51.2-51.2h716.8c28.32 0 51.2 22.88 51.2 51.2zM921.6 358.4c0 28.32-22.88 51.2-51.2 51.2h-307.2c-28.32 0-51.2-22.88-51.2-51.2s22.88-51.2 51.2-51.2h307.2c28.32 0 51.2 22.88 51.2 51.2zM921.6 563.2c0 28.32-22.88 51.2-51.2 51.2h-307.2c-28.32 0-51.2-22.88-51.2-51.2s22.88-51.2 51.2-51.2h307.2c28.32 0 51.2 22.88 51.2 51.2z" />
<glyph unicode="&#xe95b;" d="M248.16 609.44c-59.040-52.96-94.56-135.2-94.56-223.84v-1.6c0-42.4 29.44-76.8 65.76-76.8s65.76 34.4 65.76 76.8-29.44 76.8-65.76 76.8c-3.040 0-8 0.48-11.040 0 12.32 43.52 34.4 80.64 65.76 108.8 9.6 8.64 11.52 24 4.16 35.2-7.2 11.040-20.48 13.28-30.080 4.64zM423.84 609.44c-59.040-52.96-94.56-135.2-94.56-223.84v-1.6c0-42.4 29.44-76.8 65.76-76.8s65.76 34.4 65.76 76.8-29.44 76.8-65.76 76.8c-3.040 0-8-1.12-11.040-1.6 12.32 43.36 34.4 82.24 65.76 110.24 9.6 8.64 11.52 24 4.16 35.2s-20.48 13.44-30.080 4.8z" />
<glyph unicode="&#xe95c;" d="M153.6 665.6h716.8c28.32 0 51.2 22.88 51.2 51.2s-22.88 51.2-51.2 51.2h-716.8c-28.32 0-51.2-22.88-51.2-51.2s22.88-51.2 51.2-51.2zM102.4 204.8c0 28.32 22.88 51.2 51.2 51.2h716.8c28.32 0 51.2-22.88 51.2-51.2s-22.88-51.2-51.2-51.2h-716.8c-28.32 0-51.2 22.88-51.2 51.2zM102.4 358.4c0 28.32 22.88 51.2 51.2 51.2h307.2c28.32 0 51.2-22.88 51.2-51.2s-22.88-51.2-51.2-51.2h-307.2c-28.32 0-51.2 22.88-51.2 51.2zM102.4 563.2c0 28.32 22.88 51.2 51.2 51.2h307.2c28.32 0 51.2-22.88 51.2-51.2s-22.88-51.2-51.2-51.2h-307.2c-28.32 0-51.2 22.88-51.2 51.2z" />
<glyph unicode="&#xe95d;" d="M775.84 609.44c59.040-52.96 94.56-135.2 94.56-223.84v-1.6c0-42.4-29.44-76.8-65.76-76.8s-65.76 34.4-65.76 76.8 29.44 76.8 65.76 76.8c3.040 0 8 0.48 11.040 0-12.32 43.52-34.4 80.64-65.76 108.8-9.6 8.64-11.52 24-4.16 35.2 7.2 11.040 20.48 13.28 30.080 4.64zM600.16 609.44c59.040-52.96 94.56-135.2 94.56-223.84v-1.6c0-42.4-29.44-76.8-65.76-76.8s-65.76 34.4-65.76 76.8 29.44 76.8 65.76 76.8c3.040 0 8-1.12 11.040-1.6-12.32 43.36-34.4 82.24-65.76 110.24-9.6 8.64-11.52 24-4.16 35.2s20.48 13.44 30.080 4.8z" />
<glyph unicode="&#xe95e;" d="M358.4 716.8h-153.6v-102.4h153.6v102.4zM358.4 563.2h-153.6v-102.4h153.6v102.4zM204.8 409.6h153.6v-102.4h-153.6v102.4zM819.2 716.8h-153.6v-102.4h153.6v102.4zM665.6 563.2h153.6v-102.4h-153.6v102.4zM819.2 409.6h-153.6v-102.4h153.6v102.4z" />
<glyph unicode="&#xe95f;" d="M236.8 921.6c-101.76 0-185.6-91.68-185.6-204.8v-409.6c0-113.12 83.84-204.8 185.6-204.8h140.8c19.68 0 36.8-10.56 60.32-34.72 9.12-9.44 20.16-21.12 27.68-32.16 8.32-12.32 19.2-35.68 46.56-35.52s36.32 20.8 46.080 35.2c7.36 10.080 16.32 19.84 25.44 29.28 23.52 24.16 47.040 37.92 66.72 37.92h136.8c101.76 0 185.6 91.68 185.6 204.8v409.6c0 113.12-83.84 204.8-185.6 204.8h-140.8c-55.84 0-100.64-26.88-134.4-70.4-33.76 43.52-78.56 70.4-134.4 70.4h-140.8zM236.8 819.2h140.8c50.88 0 83.2-45.76 83.2-102.4v-544c-28.8 20.8-50.4 32-83.2 32h-142.080c-50.88 0-81.92 45.76-81.92 102.4v409.6c0 56.64 32.32 102.4 83.2 102.4zM646.4 819.2h140.8c50.88 0 83.2-45.76 83.2-102.4v-409.6c0-56.64-32.32-102.4-83.2-102.4h-140.8c-32.8 0-54.4-11.2-83.2-32v544c0 56.64 32.32 102.4 83.2 102.4z" />
<glyph unicode="&#xe960;" d="M153.6 51.2v691.2c0 99.040 80.16 179.2 179.2 179.2h358.4c99.040 0 179.2-80.16 179.2-179.2v-691.2c0 19.84-10.24 38.72-27.2 47.040l-75.2 36.8v607.36c0 42.4-34.4 76.8-76.8 76.8h-358.4c-42.4 0-76.8-34.4-76.8-76.8v-607.36l-75.2-36.8c-16.96-8.32-27.2-27.2-27.2-47.040z" />
<glyph unicode="&#xe961;" d="M866.72 31.040c-9.76-25.92-36.16-38.080-58.88-26.88l-40 19.52-256 125.44-296-144.96c-22.72-11.2-49.12 0.96-58.88 26.88s0.8 56.16 23.52 67.2l313.6 153.6c11.2 5.6 24 5.6 35.36 0l313.6-153.6c22.88-11.040 33.44-41.28 23.68-67.2z" />
<glyph unicode="&#xe962;" horiz-adv-x="1229" d="M1126.4 716.8v-460.8h-102.4v435.2c0 42.4-34.4 76.8-76.8 76.8h-51.2c-42.4 0-76.8-34.4-76.8-76.8v-435.2h-102.4v435.2c0 42.4-34.4 76.8-76.8 76.8h-51.2c-42.4 0-76.8-34.4-76.8-76.8v-435.2h-102.4v435.2c0 42.4-34.4 76.8-76.8 76.8h-51.2c-42.4 0-76.8-34.4-76.8-76.8v-435.2h-102.4v460.8c0 84.8 68.8 153.6 153.6 153.6h102.4c39.36 0 75.2-14.72 102.4-39.2 27.2 24.48 63.040 39.2 102.4 39.2h102.4c39.36 0 75.2-14.72 102.4-39.2 27.2 24.48 63.040 39.2 102.4 39.2h102.4c84.8 0 153.6-68.8 153.6-153.6z" />
<glyph unicode="&#xe963;" horiz-adv-x="1229" d="M1228.8 204.96v-0.48c0-28.16-22.88-51.040-51.040-51.040h-153.76v-51.2c0-28.32-22.88-51.2-51.2-51.2s-51.2 22.88-51.2 51.2v51.2h-614.4v-51.2c0-28.32-22.88-51.2-51.2-51.2s-51.2 22.88-51.2 51.2v51.2h-153.76c-28.16 0.16-51.040 23.040-51.040 51.2v0.48c0 28 22.88 50.88 51.040 50.88h1126.88c28 0 50.88-22.88 50.88-51.040zM409.6 665.6h-204.8v-102.4h204.8v102.4zM716.8 665.6h-204.8v-102.4h204.8v102.4zM1024 665.6h-204.8v-102.4h204.8v102.4z" />
<glyph unicode="&#xe964;" d="M511.68 51.2h0.32c-34.88 0-69.76 8-101.76 24l-207.2 103.36c-61.76 30.56-100.64 93.44-100.64 162.24v323.84c0-17.28 9.76-32.96 25.12-40.64l77.28-38.56v-249.44c0-34.4 20.32-64.64 51.2-80l204.8-102.4v-51.2c0-27.52 21.6-49.92 48.8-51.2h2.080zM896.48 624l-77.28-38.56v-249.44c0-34.4-20.32-64.64-51.2-80l-185.6-92.8c-5.12-2.56-13.92-7.68-19.2-9.6v-51.2c0-27.52-21.6-49.92-48.8-51.2h-2.4c34.88 0 69.76 8 101.76 24l207.2 103.36c61.76 30.56 100.64 93.44 100.64 162.24v323.84c0-17.28-9.76-32.96-25.12-40.64z" />
<glyph unicode="&#xe965;" d="M896.48 705.28l-282.72 141.12c-64 32-139.52 32-203.52 0l-282.72-141.12c-15.36-7.68-25.12-23.36-25.12-40.64s9.76-32.96 25.12-40.64l282.72-141.12c16.32-8.16 33.28-14.080 50.56-18.080v-362.4c0-27.52 21.6-49.92 48.8-51.2h4.8c27.2 1.28 48.8 23.68 48.8 51.2v362.4c17.28 4 34.24 10.080 50.56 18.080l282.72 141.12c15.36 7.68 25.12 23.36 25.12 40.64s-9.76 32.96-25.12 40.64zM568 574.56c-9.76-4.96-20.16-8.48-31.040-10.72l-25.12-5.12-25.12 5.12c-10.72 2.24-21.12 5.76-31.040 10.72l-180.64 90.080 180.96 90.080c17.28 8.64 36.64 13.28 56 13.28s38.72-4.64 56-13.28l180.64-90.080-180.64-90.080z" />
<glyph unicode="&#xe966;" d="M972.8 423.52v-180.32c0-106.080-85.92-192-192-192h-537.6c-106.080 0-192 85.92-192 192v180.32c0-20.8 12.64-39.36 31.52-45.92l70.88-24.8v-109.6c0-49.44 40.16-89.6 89.6-89.6h537.6c49.44 0 89.6 40.16 89.6 89.6v109.6l70.88 24.8c18.88 6.56 31.52 25.12 31.52 45.92zM486.4 768h51.2c61.76 0 113.6-44 125.44-102.4h103.52c-12.8 115.2-110.4 204.8-228.96 204.8h-51.2c-118.56 0-216.16-89.6-228.96-204.8h103.52c11.84 58.4 63.68 102.4 125.44 102.4z" />
<glyph unicode="&#xe967;" d="M788.48 665.6h-552.96c-101.76 0-184.32-86.72-184.32-193.76v-48.48c0-20.8 12.64-39.36 31.52-45.92l268.96-94.24c104-36.48 216.48-36.48 320.64 0l268.96 94.4c18.88 6.56 31.52 25.12 31.52 45.92v48.48c0 106.88-82.56 193.6-184.32 193.6zM870.4 461.28l-232-81.28c-40.8-14.24-83.36-21.6-126.4-21.6s-85.6 7.2-126.4 21.6l-232 81.28v10.72c0 50.4 36.8 91.36 81.92 91.36h552.96c45.12 0 81.92-40.96 81.92-91.36v-10.72z" />
<glyph unicode="&#xe968;" d="M512 768c-28.32 0-51.2-22.88-51.2-51.2v-102.4c0-28.32 22.88-51.2 51.2-51.2s51.2 22.88 51.2 51.2v102.4c0 28.32-22.88 51.2-51.2 51.2zM51.2 307.2c-28.32 0-51.2-22.88-51.2-51.2s22.88-51.2 51.2-51.2h102.4c28.32 0 51.2 22.88 51.2 51.2s-22.88 51.2-51.2 51.2h-102.4zM870.4 307.2c-28.32 0-51.2-22.88-51.2-51.2s22.88-51.2 51.2-51.2h102.4c28.32 0 51.2 22.88 51.2 51.2s-22.88 51.2-51.2 51.2h-102.4zM891.68 635.68c-20 20-52.48 20-72.48 0l-72.48-72.48c-20-20-20-52.48 0-72.48s52.48-20 72.48 0l72.48 72.48c19.84 20 19.84 52.48 0 72.48zM132.32 635.68c-20-20-20-52.48 0-72.48l72.48-72.48c20-20 52.48-20 72.48 0s20 52.48 0 72.48l-72.48 72.48c-20 19.84-52.48 19.84-72.48 0z" />
<glyph unicode="&#xe969;" d="M512 512c-141.44 0-256-114.56-256-256 0-28.32 22.88-51.2 51.2-51.2h409.6c28.32 0 51.2 22.88 51.2 51.2 0 141.44-114.56 256-256 256zM367.2 307.2c21.12 59.52 78.080 102.4 144.8 102.4s123.68-42.88 144.8-102.4h-289.6z" />
<glyph unicode="&#xe96a;" d="M512 563.2c-28.32 0-51.2 22.88-51.2 51.2s22.88 51.2 51.2 51.2 51.2-22.88 51.2-51.2-22.88-51.2-51.2-51.2zM921.6 256c0 28.32-22.88 51.2-51.2 51.2s-51.2-22.88-51.2-51.2 22.88-51.2 51.2-51.2 51.2 22.88 51.2 51.2zM204.8 256c0 28.32-22.88 51.2-51.2 51.2s-51.2-22.88-51.2-51.2 22.88-51.2 51.2-51.2 51.2 22.88 51.2 51.2zM291.2 528c0 28.32-22.88 51.2-51.2 51.2s-51.2-22.88-51.2-51.2 22.88-51.2 51.2-51.2 51.2 22.88 51.2 51.2zM835.2 528c0 28.32-22.88 51.2-51.2 51.2s-51.2-22.88-51.2-51.2 22.88-51.2 51.2-51.2 51.2 22.88 51.2 51.2z" />
<glyph unicode="&#xe96b;" d="M512 512c-141.44 0-256-114.56-256-256 0-28.32 22.88-51.2 51.2-51.2h409.6c28.32 0 51.2 22.88 51.2 51.2 0 141.44-114.56 256-256 256zM367.2 307.2c21.12 59.52 78.080 102.4 144.8 102.4s123.68-42.88 144.8-102.4h-289.6z" />
<glyph unicode="&#xe96c;" d="M512 972.8c-28.32 0-51.2-22.88-51.2-51.2v-102.4c0-28.32 22.88-51.2 51.2-51.2s51.2 22.88 51.2 51.2v102.4c0 28.32-22.88 51.2-51.2 51.2zM184 840c-13.12 0-26.88-4.48-36.8-14.4-20-20-20-52 0-72l72-73.6c20-20 53.6-20 73.6 0s20 53.6 0 73.6l-73.6 72c-9.92 9.92-22.080 14.4-35.2 14.4zM840 840c-13.12 0-25.12-4.48-35.2-14.4l-73.6-72c-20-20-20-53.6 0-73.6s53.6-20 73.6 0l72 73.6c20 20 20 52 0 72-9.92 9.92-23.68 14.4-36.8 14.4zM51.2 512c-28.32 0-51.2-22.88-51.2-51.2s22.88-51.2 51.2-51.2h102.4c28.32 0 51.2 22.88 51.2 51.2s-22.88 51.2-51.2 51.2h-102.4zM870.4 512c-28.32 0-51.2-22.88-51.2-51.2s22.88-51.2 51.2-51.2h102.4c28.32 0 51.2 22.88 51.2 51.2s-22.88 51.2-51.2 51.2h-102.4zM256 256c-13.12 0-26.72-4.48-36.8-14.4l-72-73.6c-20-20-20-52 0-72s52-20 72 0l73.6 72c20 20 20 53.6 0 73.6-10.080 9.92-23.68 14.4-36.8 14.4zM768 256c-13.12 0-26.72-4.48-36.8-14.4-20-20-20-53.6 0-73.6l73.6-72c20-20 52-20 72 0s20 52 0 72l-72 73.6c-10.080 9.92-23.68 14.4-36.8 14.4zM512 153.6c-28.32 0-51.2-22.88-51.2-51.2v-102.4c0-28.32 22.88-51.2 51.2-51.2s51.2 22.88 51.2 51.2v102.4c0 28.32-22.88 51.2-51.2 51.2z" />
<glyph unicode="&#xe96d;" d="M512 716.8c-141.44 0-256-114.56-256-256s114.56-256 256-256 256 114.56 256 256-114.56 256-256 256zM512 614.4c84.8 0 153.6-68.8 153.6-153.6s-68.8-153.6-153.6-153.6-153.6 68.8-153.6 153.6 68.8 153.6 153.6 153.6z" />
<glyph unicode="&#xe96e;" d="M512 921.6c-28.32 0-51.2-22.88-51.2-51.2s22.88-51.2 51.2-51.2 51.2 22.88 51.2 51.2-22.88 51.2-51.2 51.2zM204.8 819.2c-28.32 0-51.2-22.88-51.2-51.2s22.88-51.2 51.2-51.2 51.2 22.88 51.2 51.2-22.88 51.2-51.2 51.2zM819.2 819.2c-28.32 0-51.2-22.88-51.2-51.2s22.88-51.2 51.2-51.2 51.2 22.88 51.2 51.2-22.88 51.2-51.2 51.2zM102.4 512c-28.32 0-51.2-22.88-51.2-51.2s22.88-51.2 51.2-51.2 51.2 22.88 51.2 51.2-22.88 51.2-51.2 51.2zM921.6 512c-28.32 0-51.2-22.88-51.2-51.2s22.88-51.2 51.2-51.2 51.2 22.88 51.2 51.2-22.88 51.2-51.2 51.2zM204.8 204.8c-28.32 0-51.2-22.88-51.2-51.2s22.88-51.2 51.2-51.2 51.2 22.88 51.2 51.2-22.88 51.2-51.2 51.2zM819.2 204.8c-28.32 0-51.2-22.88-51.2-51.2s22.88-51.2 51.2-51.2 51.2 22.88 51.2 51.2-22.88 51.2-51.2 51.2zM512 102.4c-28.32 0-51.2-22.88-51.2-51.2s22.88-51.2 51.2-51.2 51.2 22.88 51.2 51.2-22.88 51.2-51.2 51.2z" />
<glyph unicode="&#xe96f;" d="M512 768c-169.6 0-307.2-137.6-307.2-307.2s137.6-307.2 307.2-307.2 307.2 137.6 307.2 307.2-137.6 307.2-307.2 307.2zM512 665.6c113.12 0 204.8-91.68 204.8-204.8s-91.68-204.8-204.8-204.8-204.8 91.68-204.8 204.8 91.68 204.8 204.8 204.8z" />
<glyph unicode="&#xe970;" d="M185.6 844.8c-13.12 0-25.28-6.080-35.2-16.32-95.36-97.12-150.4-228-150.4-368.16 0-139.2 54.4-269.6 148.8-366.56 19.84-20.48 51.84-20.32 72 0 20.16 20.16 19.84 52.8 0 73.28-75.52 77.6-118.4 181.76-118.4 293.28 0 112.16 43.68 217.12 120 294.88 20 20.32 20 52.96 0 73.28-9.92 10.24-23.68 16.32-36.8 16.32zM836.8 844.8c-13.12 0-25.28-4.48-35.2-14.72-20-20.48-20-54.56 0-75.040 76.64-77.76 120-182.4 120-294.88 0-112.32-43.52-217.12-120-294.88-20-20.32-20-52.96 0-73.28s52-20.32 72 0c95.52 97.12 150.4 228 150.4 368.16 0 140.48-54.56 272.64-150.4 369.92-10.080 10.24-23.68 14.72-36.8 14.72zM332.8 698.080c-13.12 0.16-26.72-4.48-36.8-14.72-57.92-58.4-91.2-138.56-91.2-223.2 0-82.72 32.32-160.32 88-218.4 19.68-20.64 51.84-21.76 72-1.6s19.68 54.4 0 75.040c-37.12 38.72-57.6 89.76-57.6 144.96 0 56.48 22.080 109.28 60.8 148.32 20.16 20.16 19.84 52.8 0 73.28-9.92 10.4-22.080 16.32-35.2 16.32zM691.2 698.080c-13.12-0.16-26.88-4.32-36.8-14.72-19.84-20.48-18.56-54.72 1.6-74.88 39.040-39.040 60.8-91.52 60.8-148.32 0-56.64-21.92-109.28-60.8-148.32-20.16-20.16-21.44-52.8-1.6-73.28s53.44-21.92 73.6-1.6c58.24 58.4 91.2 138.24 91.2 223.2s-32.8 164.8-91.2 223.2c-10.080 10.24-23.68 14.88-36.8 14.72z" />
<glyph unicode="&#xe971;" d="M614.4 460.8c0-56.48-45.92-102.4-102.4-102.4s-102.4 45.92-102.4 102.4 45.92 102.4 102.4 102.4 102.4-45.92 102.4-102.4z" />
<glyph unicode="&#xe972;" d="M327.040 415.84c84.32-7.52 151.52-77.6 158.72-165.6 49.44-4.32 100.32 13.12 138.24 52.64l246.56 257.12c68.16 71.040 68.16 186.080 0 257.12s-178.56 71.040-246.56 0l-246.56-257.12c-37.76-39.52-54.56-92.64-50.4-144.16zM439.040 367.2c-33.44 35.040-34.080 91.36-1.6 126.88l123.2-128.48c-33.92-33.92-88-33.44-121.6 1.6zM808.96 624.32l-186.56-194.56-123.2 128.64 186.4 194.4c34.080 35.52 89.28 35.52 123.2 0 34.080-35.52 34.080-92.96 0.16-128.48z" />
<glyph unicode="&#xe973;" d="M75.2 101.6c5.76-2.88 0.16 0 0 0 6.24-3.2 12.64-5.92 18.88-8.96 11.52-4.8 27.84-10.88 48.48-17.12 41.28-12.32 99.68-24.48 169.76-24.48 96.16 0 174.080 81.6 174.080 182.4s-77.92 182.4-174.080 182.4c-40.64 0-73.92-10.88-101.6-30.88-26.88-19.36-45.6-45.44-60.48-70.4-8.16-13.76-17.12-30.88-25.6-46.88-5.44-10.24-10.56-20-15.2-28.32-13.44-24.16-27.68-45.92-45.6-64.8-9.92-10.4-14.4-25.12-12.16-39.52s11.040-26.88 23.52-33.44zM166.72 163.36c6.56 10.24 12.48 20.32 17.92 30.080 7.36 13.28 13.28 24.48 18.72 34.88 6.88 13.28 13.12 25.12 20.8 37.92 12.32 20.64 23.52 34.56 36.16 43.68 11.68 8.48 27.36 14.72 52.16 14.72 48 0 87.040-40.8 87.040-91.2s-39.040-91.2-87.040-91.2c-60.48 0.16-110.72 10.72-145.76 21.12z" />
<glyph unicode="&#xe974;" d="M358.4 614.4h-102.4c0 141.44 114.56 256 256 256s256-114.56 256-256h-102.4c0 84.64-68.96 153.6-153.6 153.6s-153.6-68.96-153.6-153.6z" />
<glyph unicode="&#xe975;" d="M802.88 614.24l-581.76 0.16c-27.040 0-47.040-26.72-40.64-53.28 12.96-52.96 89.76-344 102.72-396.96 17.28-64 80.96-112.96 145.6-112.96h166.4c64.64 0 128.64 48.64 145.6 111.52l102.72 398.24c6.56 26.4-13.6 53.28-40.64 53.28zM641.76 188.48c-5.28-17.76-28.16-34.88-46.56-34.88h-166.4c-18.56 0-40.96 17.6-46.56 36.48-6.88 28.32-29.28 120.32-50.88 209.44-11.84 48.8-23.84 72.8-33.6 112.48l428.48-0.16-84.48-323.36z" />
<glyph unicode="&#xe976;" d="M921.6 409.6c0-28.32-22.88-51.2-51.2-51.2h-102.4v102.4h102.4c28.32 0 51.2-22.88 51.2-51.2zM153.6 460.8c-28.32 0-51.2-22.88-51.2-51.2s22.88-51.2 51.2-51.2h102.4v102.4h-102.4zM768.64 563.2c83.52 0 152.96 68.8 152.96 153.6 0 28.32-22.56 51.2-50.4 51.2s-50.4-22.88-50.4-51.2-22.56-51.2-50.4-51.2h-24c13.76-31.52 21.6-66.24 21.76-102.4h0.48zM765.44 153.6h4.8c27.84 0 50.4-22.88 50.4-51.2s22.56-51.2 50.4-51.2 50.4 22.88 50.4 51.2c0 84.8-69.44 153.6-152.96 153.6h-0.48c-0.32-36.16-8-70.88-21.76-102.4h19.2zM258.56 665.6h-4.8c-27.84 0-50.4 22.88-50.4 51.2s-22.56 51.2-50.4 51.2c-28 0-50.56-22.88-50.56-51.2 0-84.8 69.44-153.6 152.96-153.6h0.64c0 36.48 7.68 71.040 21.28 102.4h-18.72zM255.36 256c-83.52 0-152.96-68.8-152.96-153.6 0-28.32 22.56-51.2 50.4-51.2s50.4 22.88 50.4 51.2 22.56 51.2 50.4 51.2h23.52c-13.76 31.36-21.28 65.92-21.28 102.4h-0.48zM343.040 906.72c-19.84 19.84-52.16 19.84-72.16 0-19.84-19.84-19.84-52.16 0-72.16l75.84-75.84c27.040 22.88 58.88 40.32 93.92 50.4l-97.6 97.6zM753.12 834.56c19.84 19.84 19.84 52.16 0 72.16-19.84 19.84-52.16 19.84-72.16 0l-97.6-97.6c35.040-10.080 66.72-27.68 93.6-50.56l76.16 76z" />
<glyph unicode="&#xe977;" d="M533.12 818.4c-150.88 12.16-277.12-106.88-277.12-255.2v-307.2c0-148.32 126.24-267.36 277.12-255.2 133.12 10.72 234.88 123.52 234.88 256.96v303.68c0 133.44-101.76 246.24-234.88 256.96zM665.12 256c0-95.36-56.96-155.040-153.12-153.6-83.52 1.12-153.6 70.56-153.6 154.24v255.36h76.8c14.080 0 25.6-11.52 25.6-25.6v-230.4c0-28.32 22.88-51.2 51.2-51.2s51.2 22.88 51.2 51.2v230.4c0 14.080 11.52 25.6 25.6 25.6h76.8l-0.48-256zM588.8 614.4c-32.8 0-54.080-30.88-76.8-51.2-22.72 20.32-44 51.2-76.8 51.2h-76.8c18.88 73.6 74.080 102.4 153.6 102.4s134.72-28.8 153.6-102.4h-76.8z" />
<glyph unicode="&#xe978;" d="M51.2 716.8c-28.32 0-51.2-22.88-51.2-51.2s22.88-51.2 51.2-51.2v-563.2c0-28.32 22.88-51.2 51.2-51.2h153.6v102.4h-102.4v512h102.4v102.4h-204.8zM563.2 665.6c0-28.32-22.88-51.2-51.2-51.2s-51.2 22.88-51.2 51.2 22.88 51.2 51.2 51.2 51.2-22.88 51.2-51.2zM768 665.6c0-28.32-22.88-51.2-51.2-51.2s-51.2 22.88-51.2 51.2 22.88 51.2 51.2 51.2 51.2-22.88 51.2-51.2zM512 409.6c28.32 0 51.2 22.88 51.2 51.2s-22.88 51.2-51.2 51.2-51.2-22.88-51.2-51.2 22.88-51.2 51.2-51.2zM768 460.8c0-28.32-22.88-51.2-51.2-51.2s-51.2 22.88-51.2 51.2 22.88 51.2 51.2 51.2 51.2-22.88 51.2-51.2z" />
<glyph unicode="&#xe979;" d="M256 921.6c-28.32 0-51.2-22.88-51.2-51.2s22.88-51.2 51.2-51.2c0-273.12-0.48-546.24 0-819.2l256 0.48c28.32 0 51.2 22.88 51.2 51.2v102.4c0 28.32 22.88 51.2 51.2 51.2s51.2-22.88 51.2-51.2v-102.4c0-28.32 22.88-51.2 51.2-51.2h204.8c28.32 0 51.2 22.88 51.2 51.2v767.52c28.32 0 51.2 22.88 51.2 51.2s-22.88 51.2-51.2 51.2h-716.8zM358.4 819.2h512v-716.48h-102.4v51.2c0 84.8-68.8 153.6-153.6 153.6s-153.6-68.8-153.6-153.6v-51.2h-102.4v716.48z" />
<glyph unicode="&#xe97a;" d="M861.76 634.56c26.56 26.56 71.68 16.48 84.32-18.72 17.28-48.48 26.72-100.64 26.72-155.040 0-254.56-206.24-460.8-460.8-460.8s-460.8 206.24-460.8 460.8 206.24 460.8 460.8 460.8c48.48 0 95.040-7.52 138.88-21.28 36.48-11.52 47.52-57.92 20.48-84.96-13.44-13.44-33.12-18.4-51.2-12.64-34.56 10.88-70.88 16.48-108.16 16.48-95.68 0-185.76-37.28-253.44-104.96-67.2-67.2-104.96-158.4-104.96-253.44 0-95.68 37.28-185.76 104.96-253.44s157.76-104.96 253.44-104.96c95.68 0 185.76 37.28 253.44 104.96s104.96 157.76 104.96 253.44c0 41.6-7.040 82.24-20.64 120.32-6.56 18.56-2.080 39.36 12 53.44zM731.36 512.96c-10.24-10.24-15.84-24.48-14.88-38.88 0.32-4.32 0.48-8.8 0.48-13.12 0-112.96-91.84-204.8-204.8-204.8s-204.8 91.84-204.8 204.8 91.84 204.8 204.8 204.8c15.36 0 30.24-1.76 44.48-4.96 16.96-3.84 34.56 1.6 46.88 13.92 28.48 28.48 14.56 77.44-24.64 86.080-21.44 4.8-43.84 7.2-66.72 7.2-169.6 0-307.2-137.6-307.2-307.2s137.6-307.2 307.2-307.2 307.2 137.6 307.2 307.2c0 6.56-0.16 12.96-0.64 19.36-2.88 43.84-56.32 63.84-87.36 32.8z" />
<glyph unicode="&#xe97b;" d="M972.8 742.4c0-28.32-22.88-51.2-51.2-51.2h-103.52l-206.4-206.4c1.92-7.68 2.88-15.68 2.88-24 0-56.48-45.92-102.4-102.4-102.4s-102.4 45.92-102.4 102.4 45.92 102.4 102.4 102.4c10.080 0 19.84-1.44 28.96-4.16l201.28 201.44v109.92c0 28.32 22.88 51.2 51.2 51.2s51.2-22.88 51.2-51.2v-76.8h76.8c28.32 0 51.2-22.88 51.2-51.2z" />
<glyph unicode="&#xe97c;" d="M685.44 921.6h-346.88c-102.24 0-184.96-82.72-184.96-184.96v-551.84c0-102.080 82.72-184.8 184.96-184.8h347.040c102.080 0 184.96 82.72 184.96 184.96v551.68c-0.16 102.24-82.88 184.96-185.12 184.96zM768 184.96c0-45.44-36.96-82.56-82.56-82.56h-346.88c-45.44 0-82.56 36.96-82.56 82.56v551.68c0 45.44 36.96 82.56 82.56 82.56h347.040c45.44 0 82.56-36.96 82.56-82.56v-551.68z" />
<glyph unicode="&#xe97d;" d="M358.4 153.6c-28.32 0-51.2 22.88-51.2 51.2s22.88 51.2 51.2 51.2 51.2-22.88 51.2-51.2-22.88-51.2-51.2-51.2zM409.6 358.4c0 28.32-22.88 51.2-51.2 51.2s-51.2-22.88-51.2-51.2 22.88-51.2 51.2-51.2 51.2 22.88 51.2 51.2zM409.6 512c0 28.32-22.88 51.2-51.2 51.2s-51.2-22.88-51.2-51.2 22.88-51.2 51.2-51.2 51.2 22.88 51.2 51.2zM563.2 204.8c0 28.32-22.88 51.2-51.2 51.2s-51.2-22.88-51.2-51.2 22.88-51.2 51.2-51.2 51.2 22.88 51.2 51.2zM563.2 358.4c0 28.32-22.88 51.2-51.2 51.2s-51.2-22.88-51.2-51.2 22.88-51.2 51.2-51.2 51.2 22.88 51.2 51.2zM563.2 512c0 28.32-22.88 51.2-51.2 51.2s-51.2-22.88-51.2-51.2 22.88-51.2 51.2-51.2 51.2 22.88 51.2 51.2zM716.8 512c0 28.32-22.88 51.2-51.2 51.2s-51.2-22.88-51.2-51.2 22.88-51.2 51.2-51.2 51.2 22.88 51.2 51.2zM716.8 204.8v153.6c0 28.32-22.88 51.2-51.2 51.2s-51.2-22.88-51.2-51.2v-153.6c0-28.32 22.88-51.2 51.2-51.2s51.2 22.88 51.2 51.2zM716.8 652.8v25.6c0 21.28-17.12 38.4-38.4 38.4h-332.8c-21.28 0-38.4-17.12-38.4-38.4v-25.6c0-21.28 17.12-38.4 38.4-38.4h332.8c21.28 0 38.4 17.12 38.4 38.4z" />
<glyph unicode="&#xe97e;" d="M768 870.4v-102.4c56.32 0 102.4-46.080 102.4-102.4v-51.2h-716.8v51.2c0 56.32 46.080 102.4 102.4 102.4v102.4c-112.64 0-204.8-92.16-204.8-204.8v-460.8c0-112.64 92.16-204.8 204.8-204.8h512c112.64 0 204.8 92.16 204.8 204.8v460.8c0 112.64-92.16 204.8-204.8 204.8zM870.4 204.8c0-56.32-46.080-102.4-102.4-102.4h-512c-56.32 0-102.4 46.080-102.4 102.4v307.2h716.8v-307.2zM358.4 768v102.4h307.2v-102.4h-307.2z" />
<glyph unicode="&#xe97f;" d="M614.4 307.2v51.2c0 28.16 23.040 51.2 51.2 51.2h51.2c28.16 0 51.2-23.040 51.2-51.2v-51.2c0-28.16-23.040-51.2-51.2-51.2h-51.2c-28.16 0-51.2 23.040-51.2 51.2zM716.8 716.8c-28.16 0-51.2 23.040-51.2 51.2v102.4c0 28.16 23.040 51.2 51.2 51.2s51.2-23.040 51.2-51.2v-102.4c0-28.16-23.040-51.2-51.2-51.2zM307.2 716.8c-28.16 0-51.2 23.040-51.2 51.2v102.4c0 28.16 23.040 51.2 51.2 51.2s51.2-23.040 51.2-51.2v-102.4c0-28.16-23.040-51.2-51.2-51.2z" />
<glyph unicode="&#xe980;" d="M793.6 870.4h-563.2c-99.040 0-179.2-80.16-179.2-179.2v-512c0-99.040 80.16-179.2 179.2-179.2h563.2c99.040 0 179.2 80.16 179.2 179.2v512c0 99.040-80.16 179.2-179.2 179.2zM870.4 179.2c0-42.4-34.4-76.8-76.8-76.8h-563.2c-42.4 0-76.8 34.4-76.8 76.8v512c0 42.4 34.4 76.8 76.8 76.8h563.2c42.4 0 76.8-34.4 76.8-76.8v-512zM768 614.4c0 28.32-22.88 51.2-51.2 51.2h-409.6c-28.32 0-51.2-22.88-51.2-51.2s22.88-51.2 51.2-51.2h409.6c28.32 0 51.2 22.88 51.2 51.2z" />
<glyph unicode="&#xe981;" d="M768 870.4v-51.2c0-28.32-22.88-51.2-51.2-51.2s-51.2 22.88-51.2 51.2v51.2c0 28.32 22.88 51.2 51.2 51.2s51.2-22.88 51.2-51.2zM307.2 768c28.32 0 51.2 22.88 51.2 51.2v51.2c0 28.32-22.88 51.2-51.2 51.2s-51.2-22.88-51.2-51.2v-51.2c0-28.32 22.88-51.2 51.2-51.2zM281.6 384h52.16v-230.4l75.84 0.32v306.88h-128v-76.8zM760.64 393.6c-5.92 13.28-14.88 24.48-25.92 34.56s-25.12 17.28-40.8 23.040c-15.84 5.76-33.76 9.6-53.76 9.6-19.84 0-38.080-3.84-53.76-9.6-15.84-5.76-27.84-12.96-39.040-23.040-11.040-10.24-20-22.88-25.92-36.48s-9.28-28.32-9.28-44.16c0-14.88 2.24-27.36 7.36-40.32s13.28-24.96 22.4-34.56c8.96-9.6 19.040-17.44 31.52-23.040s26.080-7.68 40.8-7.68c3.040 0 6.72 0.64 10.56 1.44l2.4 0.48c4.8 0.96 11.040 3.2 18.56 7.68h1.92l-87.68-97.92h90.88l70.56 84.48c15.84 19.040 27.68 37.92 35.2 57.6 7.68 19.68 11.2 38.72 11.2 55.68 0.16 15.040-1.44 28.96-7.2 42.24zM639.84 300.8c-28.32 0-51.2 22.88-51.2 51.2s22.88 51.2 51.2 51.2 51.2-22.88 51.2-51.2-22.72-51.2-51.2-51.2z" />
<glyph unicode="&#xe982;" d="M793.6 870.4h-563.2c-99.040 0-179.2-80.16-179.2-179.2v-512c0-99.040 80.16-179.2 179.2-179.2h563.2c99.040 0 179.2 80.16 179.2 179.2v512c0 99.040-80.16 179.2-179.2 179.2zM870.4 179.2c0-42.4-34.4-76.8-76.8-76.8h-563.2c-42.4 0-76.8 34.4-76.8 76.8v512c0 42.4 34.4 76.8 76.8 76.8h563.2c42.4 0 76.8-34.4 76.8-76.8v-512zM716.8 563.2h-409.6c-28.32 0-51.2 22.88-51.2 51.2s22.88 51.2 51.2 51.2h409.6c28.32 0 51.2-22.88 51.2-51.2s-22.88-51.2-51.2-51.2z" />
<glyph unicode="&#xe983;" d="M768 870.4v-51.2c0-28.32-22.88-51.2-51.2-51.2s-51.2 22.88-51.2 51.2v51.2c0 28.32 22.88 51.2 51.2 51.2s51.2-22.88 51.2-51.2zM307.2 768c28.32 0 51.2 22.88 51.2 51.2v51.2c0 28.32-22.88 51.2-51.2 51.2s-51.2-22.88-51.2-51.2v-51.2c0-28.32 22.88-51.2 51.2-51.2zM684.8 307.2h-89.6c-17.6 0-32 14.4-32 32v89.6c0 17.6 14.4 32 32 32h89.6c17.6 0 32-14.4 32-32v-89.6c0-17.6-14.4-32-32-32z" />
<glyph unicode="&#xe984;" d="M793.6 870.4h-563.2c-99.040 0-179.2-80.16-179.2-179.2v-512c0-99.040 80.16-179.2 179.2-179.2h563.2c99.040 0 179.2 80.16 179.2 179.2v512c0 99.040-80.16 179.2-179.2 179.2zM870.4 179.2c0-42.4-34.4-76.8-76.8-76.8h-563.2c-42.4 0-76.8 34.4-76.8 76.8v332.8h716.8v-332.8zM870.4 614.4h-716.8v76.8c0 42.4 34.4 76.8 76.8 76.8h563.2c42.4 0 76.8-34.4 76.8-76.8v-76.8z" />
<glyph unicode="&#xe985;" d="M768 870.4v-102.4c0-28.32-22.88-51.2-51.2-51.2s-51.2 22.88-51.2 51.2v102.4c0 28.32 22.88 51.2 51.2 51.2s51.2-22.88 51.2-51.2zM307.2 716.8c28.32 0 51.2 22.88 51.2 51.2v102.4c0 28.32-22.88 51.2-51.2 51.2s-51.2-22.88-51.2-51.2v-102.4c0-28.32 22.88-51.2 51.2-51.2zM358.4 358.4c0 28.32-22.88 51.2-51.2 51.2s-51.2-22.88-51.2-51.2 22.88-51.2 51.2-51.2 51.2 22.88 51.2 51.2zM563.2 358.4c0 28.32-22.88 51.2-51.2 51.2s-51.2-22.88-51.2-51.2 22.88-51.2 51.2-51.2 51.2 22.88 51.2 51.2zM768 358.4c0 28.32-22.88 51.2-51.2 51.2s-51.2-22.88-51.2-51.2 22.88-51.2 51.2-51.2 51.2 22.88 51.2 51.2zM358.4 204.8c0 28.32-22.88 51.2-51.2 51.2s-51.2-22.88-51.2-51.2 22.88-51.2 51.2-51.2 51.2 22.88 51.2 51.2zM563.2 204.8c0 28.32-22.88 51.2-51.2 51.2s-51.2-22.88-51.2-51.2 22.88-51.2 51.2-51.2 51.2 22.88 51.2 51.2zM768 204.8c0 28.32-22.88 51.2-51.2 51.2s-51.2-22.88-51.2-51.2 22.88-51.2 51.2-51.2 51.2 22.88 51.2 51.2z" />
<glyph unicode="&#xe986;" d="M793.6 870.4h-563.2c-99.040 0-179.2-80.16-179.2-179.2v-512c0-99.040 80.16-179.2 179.2-179.2h563.2c99.040 0 179.2 80.16 179.2 179.2v512c0 99.040-80.16 179.2-179.2 179.2zM870.4 179.2c0-42.4-34.4-76.8-76.8-76.8h-563.2c-42.4 0-76.8 34.4-76.8 76.8v512c0 42.4 34.4 76.8 76.8 76.8h563.2c42.4 0 76.8-34.4 76.8-76.8v-512zM716.8 563.2h-409.6c-28.32 0-51.2 22.88-51.2 51.2s22.88 51.2 51.2 51.2h409.6c28.32 0 51.2-22.88 51.2-51.2s-22.88-51.2-51.2-51.2z" />
<glyph unicode="&#xe987;" d="M768 870.4v-51.2c0-28.32-22.88-51.2-51.2-51.2s-51.2 22.88-51.2 51.2v51.2c0 28.32 22.88 51.2 51.2 51.2s51.2-22.88 51.2-51.2zM307.2 768c28.32 0 51.2 22.88 51.2 51.2v51.2c0 28.32-22.88 51.2-51.2 51.2s-51.2-22.88-51.2-51.2v-51.2c0-28.32 22.88-51.2 51.2-51.2zM563.2 358.4c-28.32 0-51.2 22.88-51.2 51.2s22.88 51.2 51.2 51.2 51.2-22.88 51.2-51.2-22.88-51.2-51.2-51.2zM768 358.4c-28.32 0-51.2 22.88-51.2 51.2s22.88 51.2 51.2 51.2 51.2-22.88 51.2-51.2-22.88-51.2-51.2-51.2zM256 204.8c-28.32 0-51.2 22.88-51.2 51.2s22.88 51.2 51.2 51.2 51.2-22.88 51.2-51.2-22.88-51.2-51.2-51.2zM460.8 204.8c-28.32 0-51.2 22.88-51.2 51.2s22.88 51.2 51.2 51.2 51.2-22.88 51.2-51.2-22.88-51.2-51.2-51.2z" />
<glyph unicode="&#xe988;" d="M793.6 870.4h-563.2c-99.040 0-179.2-80.16-179.2-179.2v-512c0-99.040 80.16-179.2 179.2-179.2h563.2c99.040 0 179.2 80.16 179.2 179.2v512c0 99.040-80.16 179.2-179.2 179.2zM870.4 179.2c0-42.4-34.4-76.8-76.8-76.8h-563.2c-42.4 0-76.8 34.4-76.8 76.8v512c0 42.4 34.4 76.8 76.8 76.8h563.2c42.4 0 76.8-34.4 76.8-76.8v-512zM716.8 563.2h-409.6c-28.32 0-51.2 22.88-51.2 51.2s22.88 51.2 51.2 51.2h409.6c28.32 0 51.2-22.88 51.2-51.2s-22.88-51.2-51.2-51.2z" />
<glyph unicode="&#xe989;" d="M768 870.4v-51.2c0-28.32-22.88-51.2-51.2-51.2s-51.2 22.88-51.2 51.2v51.2c0 28.32 22.88 51.2 51.2 51.2s51.2-22.88 51.2-51.2zM307.2 768c28.32 0 51.2 22.88 51.2 51.2v51.2c0 28.32-22.88 51.2-51.2 51.2s-51.2-22.88-51.2-51.2v-51.2c0-28.32 22.88-51.2 51.2-51.2zM819.2 409.6c0 28.32-22.88 51.2-51.2 51.2h-204.8c-28.32 0-51.2-22.88-51.2-51.2s22.88-51.2 51.2-51.2h204.8c28.32 0 51.2 22.88 51.2 51.2zM512 256c0 28.32-22.88 51.2-51.2 51.2h-204.8c-28.32 0-51.2-22.88-51.2-51.2s22.88-51.2 51.2-51.2h204.8c28.32 0 51.2 22.88 51.2 51.2z" />
<glyph unicode="&#xe98a;" d="M793.6 870.4h-563.2c-99.040 0-179.2-80.16-179.2-179.2v-512c0-99.040 80.16-179.2 179.2-179.2h563.2c99.040 0 179.2 80.16 179.2 179.2v512c0 99.040-80.16 179.2-179.2 179.2zM870.4 179.2c0-42.4-34.4-76.8-76.8-76.8h-563.2c-42.4 0-76.8 34.4-76.8 76.8v512c0 42.4 34.4 76.8 76.8 76.8h563.2c42.4 0 76.8-34.4 76.8-76.8v-512z" />
<glyph unicode="&#xe98b;" d="M768 870.4v-51.2c0-28.32-22.88-51.2-51.2-51.2s-51.2 22.88-51.2 51.2v51.2c0 28.32 22.88 51.2 51.2 51.2s51.2-22.88 51.2-51.2zM307.2 768c28.32 0 51.2 22.88 51.2 51.2v51.2c0 28.32-22.88 51.2-51.2 51.2s-51.2-22.88-51.2-51.2v-51.2c0-28.32 22.88-51.2 51.2-51.2zM768 614.4c0 28.32-22.88 51.2-51.2 51.2h-409.6c-28.32 0-51.2-22.88-51.2-51.2s22.88-51.2 51.2-51.2h409.6c28.32 0 51.2 22.88 51.2 51.2z" />
<glyph unicode="&#xe98c;" d="M758.4 742.4h-25.6l-67.2 64c-7.68 7.52-21.12 12.8-32 12.8h-243.2c-10.88 0-24.32-5.28-32-12.8l-67.2-64h-25.6c-90.56 0-163.2-77.12-163.2-166.4v-361.6c0-89.28 72.64-163.2 163.2-163.2h492.8c90.56 0 163.2 73.92 163.2 163.2v361.6c0 89.28-72.64 166.4-163.2 166.4zM819.2 214.4c0-33.6-27.2-60.8-60.8-60.8h-492.8c-33.6 0-60.8 27.2-60.8 60.8v361.6c0 34.080 28.48 64 60.8 64h66.56l80.64 76.8h198.4l80.64-76.8h66.56c32.32 0 60.8-29.92 60.8-64v-361.6z" />
<glyph unicode="&#xe98d;" d="M512 614.4c-113.12 0-204.8-91.68-204.8-204.8s91.68-204.8 204.8-204.8 204.8 91.68 204.8 204.8-91.68 204.8-204.8 204.8zM512 307.2c-56.48 0-102.4 45.92-102.4 102.4s45.92 102.4 102.4 102.4 102.4-45.92 102.4-102.4-45.92-102.4-102.4-102.4zM755.2 524.8c-21.28 0-38.4 17.12-38.4 38.4s17.12 38.4 38.4 38.4 38.4-17.12 38.4-38.4-17.12-38.4-38.4-38.4z" />
<glyph unicode="&#xe98e;" d="M204.8 921.6c-113.12 0-204.8-91.68-204.8-204.8v-512c0-113.12 91.68-204.8 204.8-204.8h614.4c84.8 0 157.76 51.36 188.8 124.8 10.4 24.48 16 51.84 16 80v409.6c0 28.32-5.6 55.52-16 80-31.2 73.6-104 124.8-188.8 124.8h-440c-39.52 57.92-103.68 102.4-174.4 102.4zM204.8 819.2c43.36 0 92.16-32.48 107.2-70.4 7.68-19.52 25.44-32 46.4-32h460.8c56.64 0 102.4-45.76 102.4-102.4v-409.6c0-56.64-45.76-102.4-102.4-102.4h-614.4c-56.48 0-102.4 45.76-102.4 102.4v512c0 28.32 11.84 53.44 30.4 72s43.68 30.4 72 30.4z" />
<glyph unicode="&#xe98f;" d="M204.8 768c-28.32 0-51.2-22.88-51.2-51.040s22.88-51.040 51.2-51.040 51.2 22.88 51.2 51.040-22.88 51.040-51.2 51.040zM724.8 614.72c-12.96 1.76-27.040-2.72-38.4-11.2-22.56-16.96-26.56-47.68-9.6-70.24 26.4-35.040 40-78.080 40-123.040 0-44.16-12.8-86.56-38.4-121.44-16.8-22.72-13.28-53.6 9.6-70.24 22.72-16.64 55.2-13.12 72 9.6 38.4 52.16 59.2 116 59.2 182.080 0 67.2-21.28 131.040-60.8 183.68-8.48 11.2-20.64 18.88-33.6 20.8zM299.2 613.12c-12.96-1.92-25.12-7.84-33.6-19.2-39.2-52.48-60.8-116.8-60.8-183.68 0-68 22.080-132.32 62.4-185.28 17.12-22.4 49.44-26.72 72-9.6s26.72 49.44 9.6 72c-26.88 35.36-41.6 77.6-41.6 123.040 0 44.64 15.36 86.4 41.6 121.44 16.96 22.72 11.52 55.040-11.2 71.84-11.36 8.16-25.44 11.2-38.4 9.44zM512 512.48c-28.32 0-53.44-11.84-72-30.4s-30.4-43.68-30.4-71.84c0-56.48 45.76-102.24 102.4-102.24s102.4 45.76 102.4 102.24-45.76 102.24-102.4 102.24z" />
<glyph unicode="&#xe990;" d="M716.8 716.8c0-50.080-18.080-96.16-48-131.68-30.88 18.56-67.040 29.28-105.6 29.28h-51.2c56.48 0 102.4 45.92 102.4 102.4s-45.92 102.4-102.4 102.4-102.4-45.92-102.4-102.4 45.92-102.4 102.4-102.4h-307.2c56.48 0 102.4 45.92 102.4 102.4s-45.92 102.4-102.4 102.4-102.4-45.92-102.4-102.4 45.92-102.4 102.4-102.4c-52 0-99.36-19.36-135.52-51.2-42.4 37.6-69.28 92.48-69.28 153.6 0 113.12 91.68 204.8 204.8 204.8 61.12 0 116-26.88 153.6-69.28 37.6 42.4 92.48 69.28 153.6 69.28 113.12 0 204.8-91.68 204.8-204.8zM1024 563.2v-512c0-20.64-12.48-39.36-31.68-47.36s-41.12-3.52-55.84 11.040l-169.6 169.76c0.64 6.72 0.96 13.44 0.96 20.16v204.8c0 6.88-0.32 13.6-0.96 20.16l169.6 169.6c14.72 14.72 36.64 19.040 55.84 11.040 19.2-7.84 31.68-26.56 31.68-47.2zM921.6 439.52l-132.32-132.32 132.32-132.32v264.64z" />
<glyph unicode="&#xe991;" d="M563.2 614.4h-358.4c-113.12 0-204.8-91.68-204.8-204.8v-204.8c0-113.12 91.68-204.8 204.8-204.8h358.4c113.12 0 204.8 91.68 204.8 204.8v204.8c0 113.12-91.68 204.8-204.8 204.8zM665.6 204.8c0-56.48-45.92-102.4-102.4-102.4h-358.4c-56.48 0-102.4 45.92-102.4 102.4v204.8c0 56.48 45.92 102.4 102.4 102.4h358.4c56.48 0 102.4-45.92 102.4-102.4v-204.8z" />
<glyph unicode="&#xe992;" d="M256 409.6c0-28.32-22.88-51.2-51.2-51.2s-51.2 22.88-51.2 51.2 22.88 51.2 51.2 51.2 51.2-22.88 51.2-51.2zM870.4 409.6c0-28.32-22.88-51.2-51.2-51.2s-51.2 22.88-51.2 51.2 22.88 51.2 51.2 51.2 51.2-22.88 51.2-51.2zM318.24 697.44l-59.040-134.080c-7.52-17.76-1.12-39.2 14.56-47.68 4.96-2.72 10.56-4 16.16-3.52 56.16 5.12 145.12 11.84 222.080 11.84s166.080-6.72 222.080-11.84c17.28-1.44 32.48 13.28 33.76 32.96 0.48 6.24-0.64 12.64-3.040 18.24l-59.040 134.080c-5.28 11.84-15.84 19.36-27.68 19.36h-332.32c-11.68 0-22.4-7.52-27.52-19.36zM716.8 409.6c0 28.32-22.88 51.2-51.2 51.2h-307.2c-28.32 0-51.2-22.88-51.2-51.2s22.88-51.2 51.2-51.2h307.2c28.32 0 51.2 22.88 51.2 51.2z" />
<glyph unicode="&#xe993;" d="M1020.8 412.48l-21.44 114.56c-7.040 37.28-29.76 69.12-61.76 86.080-10.88 5.76-19.52 15.68-24.32 27.52l-49.28 127.36c-25.28 62.72-83.2 102.4-147.2 102.4h-409.6c-64 0-121.92-39.68-147.2-102.4l-49.28-127.2c-4.8-12-13.44-21.76-24.32-27.52-32-16.96-54.72-48.8-61.76-86.080l-21.44-114.72c-2.080-11.040-3.2-22.24-3.2-33.44v-28.16c0-55.52 12.16-105.28 51.2-136.32v-131.36c0-18.88 11.2-32 28.8-32h140.8c17.6 0 35.2 13.12 35.2 32v96c82.72-3.2 175.68-9.6 256-9.6s173.28 6.4 256 9.6v-96c0-18.88 11.2-32 28.8-32h147.2c17.6 0 28.8 13.12 28.8 32v131.36c39.040 31.040 51.2 80.8 51.2 136.32v28.16c0 11.2-0.96 22.4-3.2 33.44zM921.6 350.88c0-28.96-4.64-49.92-12.48-56.16l-38.72-9.92-106.4-3.2c-25.92-0.96-53.28-2.4-79.68-3.68-58.72-2.88-119.2-5.92-172.32-5.92s-113.6 3.040-172.16 5.92c-26.4 1.28-53.76 2.56-79.68 3.68l-106.56 3.2-38.72 9.92c-7.84 6.24-12.48 27.2-12.48 56.16v28.16c0 4.8 0.48 9.76 1.44 14.56l21.44 114.72c1.28 6.56 4.8 12.32 9.12 14.72 32.16 17.12 57.44 45.44 71.36 79.84l0.48 1.12 49.12 126.56c9.6 23.36 29.44 37.76 51.84 37.76h409.6c22.56 0 42.4-14.4 52-37.76l49.28-127.040 0.16-0.64c13.76-34.24 39.040-62.56 71.2-79.68 4.48-2.4 8-8 9.28-14.72l21.44-115.040c0.8-4.48 1.28-9.28 1.28-14.080v-28.48z" />
<glyph unicode="&#xe994;" d="M966.24 558.24l-119.52 205.44c-38.24 65.76-108.48 106.72-183.040 106.72h-303.36c-74.56 0-144.8-40.96-183.040-106.72l-119.52-205.44c-37.76-64.96-57.76-139.2-57.76-214.88v-106.72c0-45.76 36.16-83.040 80.64-83.040h862.72c44.48 0 80.64 37.28 80.64 83.040v106.72c0 75.68-20 149.92-57.76 214.88zM136.48 638.56l64.8 110.080c34.88 59.2 97.76 95.36 165.6 95.36h290.080c67.84 0 130.72-36.16 165.6-95.36l64.8-110.080c21.92-36.96-3.36-75.36-45.76-75.36h-662.4c-42.24 0-64.48 38.4-42.72 75.36zM297.12 278.56h-145.28c-34.24 0-62.24 29.44-62.24 65.76 0 19.68 8.16 38.080 22.56 50.72s33.12 17.6 51.36 13.92l142.72-28.96c22.72-4.64 39.36-25.76 39.36-50.24 0-28.32-21.76-51.2-48.48-51.2zM598.4 240h-172.8c-8.8 0-16 7.2-16 16s7.2 16 16 16h172.8c8.8 0 16-7.2 16-16s-7.2-16-16-16zM730.080 278.56c-26.72 0-48.48 22.88-48.48 51.2 0 24.48 16.48 45.6 39.36 50.24l142.72 28.96c18.24 3.68 36.96-1.44 51.36-13.92s22.56-31.040 22.56-50.72c0-36.32-28-65.76-62.24-65.76h-145.28z" />
<glyph unicode="&#xe995;" d="M136.48 638.56l64.8 110.080c34.88 59.2 97.76 95.36 165.6 95.36h290.080c67.84 0 130.72-36.16 165.6-95.36l64.8-110.080c21.92-36.96-3.36-75.36-45.76-75.36h-662.4c-42.24 0-64.48 38.4-42.72 75.36zM0 236.64v-128.48c0-31.36 25.44-56.96 56.64-56.96h91.68c31.2 0 56.64 25.6 56.64 56.96v45.44h-124.32c-44.48 0-80.64 37.28-80.64 83.040zM943.36 153.6h-124.16v-45.44c0-31.36 25.44-56.96 56.64-56.96h91.68c31.2 0 56.64 25.6 56.64 56.96v128.48c-0.16-45.76-36.32-83.040-80.8-83.040z" />
<glyph unicode="&#xe996;" d="M844.8 870.4h-665.6c-99.040 0-179.2-80.16-179.2-179.2v-460.8c0-99.040 80.16-179.2 179.2-179.2h665.6c99.040 0 179.2 80.16 179.2 179.2v460.8c0 99.040-80.16 179.2-179.2 179.2zM921.6 230.4c0-42.4-34.4-76.8-76.8-76.8h-665.6c-42.4 0-76.8 34.4-76.8 76.8v460.8c0 42.4 34.4 76.8 76.8 76.8h665.6c42.4 0 76.8-34.4 76.8-76.8v-460.8z" />
<glyph unicode="&#xe997;" d="M357.92 665.6c-13.12 0-25.12-4.48-35.040-14.4l-36.64-36.8h-30.24c-28.16 0-51.040-22.88-51.040-51.2s22.88-51.2 51.040-51.2h51.040c13.6 0 27.040 4.8 36.64 14.4l51.040 51.2c20 20 20 53.6 0 73.6-10.080 9.92-23.68 14.4-36.8 14.4zM768 512h-204.8c-28.32 0-51.2 22.88-51.2 51.2s22.88 51.2 51.2 51.2h204.8c28.32 0 51.2-22.88 51.2-51.2s-22.88-51.2-51.2-51.2zM768 307.2h-204.8c-28.32 0-51.2 22.88-51.2 51.2s22.88 51.2 51.2 51.2h204.8c28.32 0 51.2-22.88 51.2-51.2s-22.88-51.2-51.2-51.2zM357.92 460.8c-13.12 0-25.12-4.48-35.040-14.4l-36.64-36.8h-30.24c-28.16 0-51.040-22.88-51.040-51.2s22.88-51.2 51.040-51.2h51.040c13.6 0 27.040 4.8 36.64 14.4l51.040 51.2c20 20 20 53.6 0 73.6-10.080 9.92-23.68 14.4-36.8 14.4z" />
<glyph unicode="&#xe998;" d="M844.8 870.4h-665.6c-99.040 0-179.2-80.16-179.2-179.2v-460.8c0-99.040 80.16-179.2 179.2-179.2h665.6c99.040 0 179.2 80.16 179.2 179.2v460.8c0 99.040-80.16 179.2-179.2 179.2zM921.6 230.4c0-42.4-34.4-76.8-76.8-76.8h-665.6c-42.4 0-76.8 34.4-76.8 76.8v460.8c0 42.4 34.4 76.8 76.8 76.8h665.6c42.4 0 76.8-34.4 76.8-76.8v-460.8z" />
<glyph unicode="&#xe999;" d="M563.2 307.2h-307.2c-28.32 0-51.2 22.88-51.2 51.2s22.88 51.2 51.2 51.2h307.2c28.32 0 51.2-22.88 51.2-51.2s-22.88-51.2-51.2-51.2zM742.56 512h-461.12c-42.24 0-76.64 34.24-76.64 76.64v0.32c0 42.24 34.24 76.64 76.64 76.64h461.12c42.24 0 76.64-34.24 76.64-76.64v-0.32c0-42.4-34.24-76.64-76.64-76.64z" />
<glyph unicode="&#xe99a;" d="M972.8 640v-334.24l-9.28 12.48c-30.72 41.6-62.24 71.84-93.12 92.96v228.8c0 42.4-34.4 76.8-76.8 76.8h-563.2c-42.4 0-76.8-34.4-76.8-76.8v-169.12c-36.16-46.24-69.12-101.76-97.6-159.68l-4.8-9.92v338.72c0 99.040 80.16 179.2 179.2 179.2h563.2c99.040 0 179.2-80.16 179.2-179.2z" />
<glyph unicode="&#xe99b;" d="M963.52 318.24l9.28-12.48v-15.68c0-104.8-77.12-187.68-184.32-187.68h-552.96c-103.36 0-184.32 81.28-184.32 187.68v11.040l4.8 9.92c35.68 72.64 78.4 141.6 125.6 192.96 46.24 50.24 103.68 91.040 168.96 91.040 34.4 0 66.24-13.12 93.6-29.92 27.52-16.96 53.44-39.36 76.8-62.72 32.16-32 63.68-69.92 89.12-100.64l1.28-1.44c10.24 7.040 21.28 14.4 32.96 21.28 26.080 15.36 61.92 32.64 97.92 32.64 63.040 0.16 145.12-32.32 221.28-136zM868.96 273.12c-41.12 50.4-86.56 78.88-126.56 78.88-2.4 0-16-0.96-46.080-18.56-8.16-4.8-16.96-10.56-26.4-16.96l-77.28-53.92-61.44 74.24c-24 28.96-53.76 64.8-82.4 93.44-21.44 21.28-40.96 37.44-58.080 48-15.68 9.6-29.44 14.72-40 14.72-25.92 0-59.2-20.64-93.6-58.080-34.56-37.6-70.080-91.36-102.88-156.16 4.96-43.36 37.6-73.76 81.28-73.76h552.96c23.68 0 44 8 58.72 23.36 11.36 11.52 18.88 27.2 21.76 44.8zM768 563.2c-28.32 0-51.2 22.88-51.2 51.2s22.88 51.2 51.2 51.2 51.2-22.88 51.2-51.2-22.88-51.2-51.2-51.2z" />
<glyph unicode="&#xe99c;" d="M972.8 640v-334.24l-9.28 12.48c-30.72 41.6-62.24 71.84-93.12 92.96v228.8c0 42.4-34.4 76.8-76.8 76.8h-563.2c-42.4 0-76.8-34.4-76.8-76.8v-169.12c-36.16-46.24-69.12-101.76-97.6-159.68l-4.8-9.92v338.72c0 99.040 80.16 179.2 179.2 179.2h563.2c99.040 0 179.2-80.16 179.2-179.2z" />
<glyph unicode="&#xe99d;" d="M963.52 318.24l9.28-12.48v-15.68c0-104.8-77.12-187.68-184.32-187.68h-552.96c-103.36 0-184.32 81.28-184.32 187.68v11.040l4.8 9.92c35.68 72.64 78.4 141.6 125.6 192.96 46.24 50.24 103.68 91.040 168.96 91.040 34.4 0 66.24-13.12 93.6-29.92 27.52-16.96 53.44-39.36 76.8-62.72 32.16-32 63.68-69.92 89.12-100.64l1.28-1.44c10.24 7.040 21.28 14.4 32.96 21.28 26.080 15.36 61.92 32.64 97.92 32.64 63.040 0.16 145.12-32.32 221.28-136zM768 563.2c-28.32 0-51.2 22.88-51.2 51.2s22.88 51.2 51.2 51.2 51.2-22.88 51.2-51.2-22.88-51.2-51.2-51.2z" />
<glyph unicode="&#xe99e;" d="M844.8 870.4h-665.6c-99.040 0-179.2-80.16-179.2-179.2v-460.8c0-99.040 80.16-179.2 179.2-179.2h665.6c99.040 0 179.2 80.16 179.2 179.2v460.8c0 99.040-80.16 179.2-179.2 179.2zM921.6 230.4c0-42.4-34.4-76.8-76.8-76.8h-665.6c-42.4 0-76.8 34.4-76.8 76.8v460.8c0 42.4 34.4 76.8 76.8 76.8h665.6c42.4 0 76.8-34.4 76.8-76.8v-460.8z" />
<glyph unicode="&#xe99f;" d="M768 512h-256c-28.32 0-51.2 22.88-51.2 51.2s22.88 51.2 51.2 51.2h256c28.32 0 51.2-22.88 51.2-51.2s-22.88-51.2-51.2-51.2zM256 512c-28.32 0-51.2 22.88-51.2 51.2s22.88 51.2 51.2 51.2 51.2-22.88 51.2-51.2-22.88-51.2-51.2-51.2zM768 307.2h-256c-28.32 0-51.2 22.88-51.2 51.2s22.88 51.2 51.2 51.2h256c28.32 0 51.2-22.88 51.2-51.2s-22.88-51.2-51.2-51.2zM256 307.2c-28.32 0-51.2 22.88-51.2 51.2s22.88 51.2 51.2 51.2 51.2-22.88 51.2-51.2-22.88-51.2-51.2-51.2z" />
<glyph unicode="&#xe9a0;" d="M793.6 819.2h-563.2c-99.040 0-179.2-80.16-179.2-179.2v-358.4c0-99.040 80.16-179.2 179.2-179.2h563.2c99.040 0 179.2 80.16 179.2 179.2v358.4c0 99.040-80.16 179.2-179.2 179.2zM307.2 358.4c0-28.32-22.88-51.2-51.2-51.2s-51.2 22.88-51.2 51.2 22.88 51.2 51.2 51.2 51.2-22.88 51.2-51.2zM307.2 563.2c0-28.32-22.88-51.2-51.2-51.2s-51.2 22.88-51.2 51.2 22.88 51.2 51.2 51.2 51.2-22.88 51.2-51.2zM768 358.4c0-28.32-22.88-51.2-51.2-51.2h-256c-28.32 0-51.2 22.88-51.2 51.2s22.88 51.2 51.2 51.2h256c28.32 0 51.2-22.88 51.2-51.2zM768 563.2c0-28.32-22.88-51.2-51.2-51.2h-256c-28.32 0-51.2 22.88-51.2 51.2s22.88 51.2 51.2 51.2h256c28.32 0 51.2-22.88 51.2-51.2z" />
<glyph unicode="&#xe9a1;" d="M307.2 563.2c0-28.32-22.88-51.2-51.2-51.2s-51.2 22.88-51.2 51.2 22.88 51.2 51.2 51.2 51.2-22.88 51.2-51.2zM256 409.6c-28.32 0-51.2-22.88-51.2-51.2s22.88-51.2 51.2-51.2 51.2 22.88 51.2 51.2-22.88 51.2-51.2 51.2z" />
<glyph unicode="&#xe9a2;" d="M844.8 870.4h-665.6c-99.040 0-179.2-80.16-179.2-179.2v-460.8c0-99.040 80.16-179.2 179.2-179.2h665.6c99.040 0 179.2 80.16 179.2 179.2v460.8c0 99.040-80.16 179.2-179.2 179.2zM921.6 230.4c0-42.4-34.4-76.8-76.8-76.8h-665.6c-42.4 0-76.8 34.4-76.8 76.8v460.8c0 42.4 34.4 76.8 76.8 76.8h665.6c42.4 0 76.8-34.4 76.8-76.8v-460.8z" />
<glyph unicode="&#xe9a3;" d="M768 512h-512c-28.32 0-51.2 22.88-51.2 51.2s22.88 51.2 51.2 51.2h512c28.32 0 51.2-22.88 51.2-51.2s-22.88-51.2-51.2-51.2zM512 307.2h-256c-28.32 0-51.2 22.88-51.2 51.2s22.88 51.2 51.2 51.2h256c28.32 0 51.2-22.88 51.2-51.2s-22.88-51.2-51.2-51.2z" />
<glyph unicode="&#xe9a4;" d="M155.36 679.52c5.92 22.080 26.4 37.28 49.28 37.28h614.56c22.88 0 43.36-15.2 49.28-37.28 8.96-34.24-16.64-65.12-49.44-65.12h-614.24c-32.8 0-58.4 30.88-49.44 65.12z" />
<glyph unicode="&#xe9a5;" d="M174.080 706.56c22.56 16.96 54.72 12.32 71.68-10.24l266.24-355.040 266.24 355.040c16.96 22.56 49.12 27.2 71.68 10.24s27.2-49.12 10.24-71.68l-307.2-409.6c-9.6-12.96-24.8-20.48-40.96-20.48s-31.36 7.52-40.96 20.48l-307.2 409.6c-16.96 22.56-12.32 54.72 10.24 71.68z" />
<glyph unicode="&#xe9a6;" d="M155.36 242.080c5.92-22.080 26.4-37.28 49.28-37.28h614.56c22.88 0 43.36 15.2 49.28 37.28 8.96 34.24-16.64 65.12-49.44 65.12h-614.24c-32.8 0-58.4-30.88-49.44-65.12z" />
<glyph unicode="&#xe9a7;" d="M174.080 215.040c22.56-16.96 54.72-12.32 71.68 10.24l266.24 355.040 266.24-355.040c16.96-22.56 49.12-27.2 71.68-10.24s27.2 49.12 10.24 71.68l-307.2 409.6c-9.6 12.96-24.8 20.48-40.96 20.48s-31.36-7.52-40.96-20.48l-307.2-409.6c-16.96-22.56-12.32-54.72 10.24-71.68z" />
<glyph unicode="&#xe9a8;" d="M730.72 104.16c22.080 5.92 37.28 26.4 37.28 49.28v614.56c0 22.88-15.2 43.36-37.28 49.28-34.24 8.96-65.12-16.64-65.12-49.44v-614.24c0-32.8 30.88-58.4 65.12-49.44z" />
<glyph unicode="&#xe9a9;" d="M757.76 122.88c16.96 22.56 12.32 54.72-10.24 71.68l-355.040 266.24 355.040 266.24c22.56 16.96 27.2 49.12 10.24 71.68s-49.12 27.2-71.68 10.24l-409.6-307.2c-12.96-9.6-20.48-24.8-20.48-40.96s7.52-31.36 20.48-40.96l409.6-307.2c22.56-16.96 54.72-12.32 71.68 10.24z" />
<glyph unicode="&#xe9aa;" d="M293.28 817.44c-22.080-5.92-37.28-26.4-37.28-49.28v-614.56c0-22.88 15.2-43.36 37.28-49.28 34.24-8.96 65.12 16.64 65.12 49.44v614.24c0 32.8-30.88 58.4-65.12 49.44z" />
<glyph unicode="&#xe9ab;" d="M266.24 798.72c-16.96-22.56-12.32-54.72 10.24-71.68l355.040-266.24-355.040-266.24c-22.56-16.96-27.2-49.12-10.24-71.68s49.12-27.2 71.68-10.24l409.6 307.2c12.96 9.6 20.48 24.8 20.48 40.96s-7.52 31.36-20.48 40.96l-409.6 307.2c-22.56 16.96-54.72 12.32-71.68-10.24z" />
<glyph unicode="&#xe9ac;" d="M716.8 870.4h-409.6c-113.12 0-204.8-91.68-204.8-204.8v-409.6c0-113.12 91.68-204.8 204.8-204.8h409.6c113.12 0 204.8 91.68 204.8 204.8v409.6c0 113.12-91.68 204.8-204.8 204.8zM819.2 256c0-56.48-45.92-102.4-102.4-102.4h-409.6c-56.48 0-102.4 45.92-102.4 102.4v409.6c0 56.48 45.92 102.4 102.4 102.4h409.6c56.48 0 102.4-45.92 102.4-102.4v-409.6z" />
<glyph unicode="&#xe9ad;" d="M348.16 614.4c-34.4 0-53.44-42.56-32-71.36 20.48-27.36 143.36-192 163.84-219.36 16.32-21.92 47.52-21.92 64 0l163.84 219.36c21.44 28.8 2.4 71.36-32 71.36h-327.68z" />
<glyph unicode="&#xe9ae;" d="M716.8 51.2h-409.6c-113.12 0-204.8 91.68-204.8 204.8v409.6c0 113.12 91.68 204.8 204.8 204.8h409.6c113.12 0 204.8-91.68 204.8-204.8v-409.6c0-113.12-91.68-204.8-204.8-204.8zM819.2 665.6c0 56.48-45.92 102.4-102.4 102.4h-409.6c-56.48 0-102.4-45.92-102.4-102.4v-409.6c0-56.48 45.92-102.4 102.4-102.4h409.6c56.48 0 102.4 45.92 102.4 102.4v409.6z" />
<glyph unicode="&#xe9af;" d="M348.16 307.2c-34.4 0-53.44 42.56-32 71.36 20.48 27.36 143.36 192 163.84 219.36 16.32 21.92 47.52 21.92 64 0l163.84-219.36c21.44-28.8 2.4-71.36-32-71.36h-327.68z" />
<glyph unicode="&#xe9b0;" d="M921.6 665.6v-409.6c0-113.12-91.68-204.8-204.8-204.8h-409.6c-113.12 0-204.8 91.68-204.8 204.8v409.6c0 113.12 91.68 204.8 204.8 204.8h409.6c113.12 0 204.8-91.68 204.8-204.8zM307.2 768c-56.48 0-102.4-45.92-102.4-102.4v-409.6c0-56.48 45.92-102.4 102.4-102.4h409.6c56.48 0 102.4 45.92 102.4 102.4v409.6c0 56.48-45.92 102.4-102.4 102.4h-409.6z" />
<glyph unicode="&#xe9b1;" d="M665.6 296.96c0-34.4-42.56-53.44-71.36-32-27.36 20.48-192 143.36-219.36 163.84-21.92 16.32-21.92 47.52 0 64l219.36 163.84c28.8 21.44 71.36 2.4 71.36-32v-327.68z" />
<glyph unicode="&#xe9b2;" d="M102.4 665.6v-409.6c0-113.12 91.68-204.8 204.8-204.8h409.6c113.12 0 204.8 91.68 204.8 204.8v409.6c0 113.12-91.68 204.8-204.8 204.8h-409.6c-113.12 0-204.8-91.68-204.8-204.8zM716.8 768c56.48 0 102.4-45.92 102.4-102.4v-409.6c0-56.48-45.92-102.4-102.4-102.4h-409.6c-56.48 0-102.4 45.92-102.4 102.4v409.6c0 56.48 45.92 102.4 102.4 102.4h409.6z" />
<glyph unicode="&#xe9b3;" d="M358.4 296.96c0-34.4 42.56-53.44 71.36-32 27.36 20.48 192 143.36 219.36 163.84 21.92 16.32 21.92 47.52 0 64l-219.36 163.84c-28.8 21.44-71.36 2.4-71.36-32v-327.68z" />
<glyph unicode="&#xe9b4;" d="M365.76-51.2c40.32 0 73.12 34.4 73.12 76.8s-32.8 76.8-73.12 76.8-73.12-34.4-73.12-76.8 32.64-76.8 73.12-76.8zM804.64-51.2c40.32 0 73.12 34.4 73.12 76.8s-32.8 76.8-73.12 76.8c-40.32 0-73.12-34.4-73.12-76.8s32.64-76.8 73.12-76.8z" />
<glyph unicode="&#xe9b5;" d="M49.44 972.8c-27.36 0.16-49.28-22.88-49.44-51.2s22.080-51.040 49.44-51.2c36.48-0.32 65.6-25.6 88-73.6 20.96-44.8 27.040-81.76 27.84-86.4l58.72-392c17.92-93.28 103.36-164.8 192.96-164.8h351.84c89.6 0 175.36 72.16 192.96 163.2l60.16 416c13.92 72.32-37.6 137.6-111.040 137.6h-699.2c-37.44 63.36-93.92 101.76-162.24 102.4zM254.72 768h656c11.2 0 16-6.080 13.92-17.6l-60.16-416c-8-40.8-53.12-78.4-95.68-78.4h-352.16c-42.56 0-87.36 36.8-95.68 80l-57.12 390.4c-1.6 10.88-5.6 28.16-9.12 41.6z" />
<glyph unicode="&#xe9b6;" d="M51.2 972.8c-28.32 0-51.2-22.88-51.2-51.2s22.88-51.2 51.2-51.2h52.32c49.12 0 96.16-34.88 105.28-83.040l80-416.48c18.72-96.32 103.040-166.080 201.28-166.080h380.32c28.32 0 51.2 22.88 51.2 51.2s-22.88 51.2-51.2 51.2h-380.32c-49.12 0-91.36 34.88-100.48 83.040l-80 416.48c-18.72 96.32-107.84 166.080-206.080 166.080h-52.32zM512 25.6c0-42.4-34.4-76.8-76.8-76.8s-76.8 34.4-76.8 76.8 34.4 76.8 76.8 76.8 76.8-34.4 76.8-76.8zM921.6 25.6c0-42.4-34.4-76.8-76.8-76.8s-76.8 34.4-76.8 76.8 34.4 76.8 76.8 76.8 76.8-34.4 76.8-76.8z" />
<glyph unicode="&#xe9b7;" d="M216.64 852c9.76 11.68 24.16 18.4 39.36 18.4h716.8c15.52 0 30.080-7.040 39.84-19.040s13.44-27.84 10.24-42.88l-50.72-236.96c-20.16-94.4-103.68-161.92-200.32-161.92h-322.24c-98.88 0-183.68 70.72-201.44 168l-42.56 232.48c-2.72 14.88 1.28 30.24 11.040 41.92zM317.44 768l31.36-172c8.96-48.64 51.2-84 100.8-84h322.24c48.32 0 90.080 33.76 100.16 80.96l37.44 175.040h-592z" />
<glyph unicode="&#xe9b8;" d="M870.4 819.2h-716.8c-84.8 0-153.6-68.8-153.6-153.6v-409.6c0-84.8 68.8-153.6 153.6-153.6h716.8c84.8 0 153.6 68.8 153.6 153.6v409.6c0 84.8-68.8 153.6-153.6 153.6zM921.6 256c0-28.16-23.040-51.2-51.2-51.2h-716.8c-28.16 0-51.2 23.040-51.2 51.2v409.6c0 28.16 23.040 51.2 51.2 51.2h716.8c28.16 0 51.2-23.040 51.2-51.2v-409.6z" />
<glyph unicode="&#xe9b9;" d="M512 614.4c-84.8 0-153.6-68.8-153.6-153.6s68.8-153.6 153.6-153.6 153.6 68.8 153.6 153.6-68.8 153.6-153.6 153.6zM512 409.6c-28.16 0-51.2 23.040-51.2 51.2s23.040 51.2 51.2 51.2 51.2-23.040 51.2-51.2-23.040-51.2-51.2-51.2zM358.4 614.4c0-28.32-22.88-51.2-51.2-51.2h-51.2c0-28.32-22.88-51.2-51.2-51.2s-51.2 22.88-51.2 51.2v51.2c0 28.32 22.88 51.2 51.2 51.2h102.4c28.32 0 51.2-22.88 51.2-51.2zM665.6 614.4c0 28.32 22.88 51.2 51.2 51.2h102.4c28.32 0 51.2-22.88 51.2-51.2v-51.2c0-28.32-22.88-51.2-51.2-51.2s-51.2 22.88-51.2 51.2h-51.2c-28.32 0-51.2 22.88-51.2 51.2zM358.4 307.2c0-28.32-22.88-51.2-51.2-51.2h-102.4c-28.32 0-51.2 22.88-51.2 51.2v51.2c0 28.32 22.88 51.2 51.2 51.2s51.2-22.88 51.2-51.2h51.2c28.32 0 51.2-22.88 51.2-51.2zM665.6 307.2c0 28.32 22.88 51.2 51.2 51.2h51.2c0 28.32 22.88 51.2 51.2 51.2s51.2-22.88 51.2-51.2v-51.2c0-28.32-22.88-51.2-51.2-51.2h-102.4c-28.32 0-51.2 22.88-51.2 51.2z" />
<glyph unicode="&#xe9ba;" d="M870.4 665.6h-716.8c-84.8 0-153.6-68.8-153.6-153.6v-307.2c0-84.8 68.8-153.6 153.6-153.6h716.8c84.8 0 153.6 68.8 153.6 153.6v307.2c0 84.8-68.8 153.6-153.6 153.6zM921.6 204.8c0-28.16-23.040-51.2-51.2-51.2h-716.8c-28.16 0-51.2 23.040-51.2 51.2v307.2c0 28.16 23.040 51.2 51.2 51.2h716.8c28.16 0 51.2-23.040 51.2-51.2v-307.2zM870.4 768h-716.8c-28.32 0-51.2 22.88-51.2 51.2s22.88 51.2 51.2 51.2h716.8c28.32 0 51.2-22.88 51.2-51.2s-22.88-51.2-51.2-51.2z" />
<glyph unicode="&#xe9bb;" d="M358.4 460.8c0-28.32-22.88-51.2-51.2-51.2h-51.2v-153.6c0-28.32-22.88-51.2-51.2-51.2s-51.2 22.88-51.2 51.2v204.8c0 28.32 22.88 51.2 51.2 51.2h102.4c28.32 0 51.2-22.88 51.2-51.2zM819.2 512c-28.32 0-51.2-22.88-51.2-51.2v-153.6h-51.2c-28.32 0-51.2-22.88-51.2-51.2s22.88-51.2 51.2-51.2h102.4c28.32 0 51.2 22.88 51.2 51.2v204.8c0 28.32-22.88 51.2-51.2 51.2zM512 460.8c-56.48 0-102.4-45.92-102.4-102.4s45.92-102.4 102.4-102.4 102.4 45.92 102.4 102.4-45.92 102.4-102.4 102.4z" />
<glyph unicode="&#xe9bc;" d="M972.8 716.8v-358.4c0-84.8-68.8-153.6-153.6-153.6h-51.2c-28.32 0-51.2 22.88-51.2 51.2s22.88 51.2 51.2 51.2h51.2c28.32 0 51.2 22.88 51.2 51.2v358.4c0 28.32-22.88 51.2-51.2 51.2h-614.4c-28.32 0-51.2-22.88-51.2-51.2v-358.4c0-28.32 22.88-51.2 51.2-51.2h51.2c28.32 0 51.2-22.88 51.2-51.2s-22.88-51.2-51.2-51.2h-51.2c-84.8 0-153.6 68.8-153.6 153.6v358.4c0 84.8 68.8 153.6 153.6 153.6h614.4c84.8 0 153.6-68.8 153.6-153.6z" />
<glyph unicode="&#xe9bd;" d="M512 358.4c-13.12 0-26.72-4.48-36.8-14.4l-204.32-204.8c-32.16-32.32-8.8-88 36.8-88h408.64c45.44 0 68.96 55.68 36.8 88-25.6 25.6-178.88 179.2-204.32 204.8-10.080 9.92-23.68 14.4-36.8 14.4z" />
<glyph unicode="&#xe9be;" glyph-name="chat" data-tags="chat" d="M512 921.6c-253.28 0-460.8-193.12-460.8-434.4 0-75.84 20.32-149.6 59.040-214.080 20.8-34.72 22.72-84-8.64-150.88-14.24-30.24 5.28-66.24 37.44-69.44 62.56-6.24 115.36 4.8 187.2 36.16 57.28-23.2 121.92-36.16 185.76-36.16 253.28 0 460.8 193.12 460.8 434.4s-207.52 434.4-460.8 434.4zM767.36 254.24c-68-63.84-158.72-99.040-255.36-99.040-49.6 0-101.92 10.080-147.040 28.64l-40 16.32-39.68-17.28c-24.16-10.56-44.48-17.92-63.040-22.72 15.52 74.72-2.56 129.6-24.16 165.44-29.12 48.64-44.48 104.48-44.48 161.6 0 87.84 36.64 170.56 103.040 232.96 68 63.84 158.72 99.040 255.36 99.040s187.36-35.2 255.36-98.88c66.4-62.4 103.040-145.12 103.040-232.96 0-88-36.64-170.72-103.040-233.12z" />
<glyph unicode="&#xe9bf;" d="M512 921.6c-253.28 0-460.8-193.12-460.8-434.4 0-75.84 20.32-149.6 59.040-214.080 20.8-34.72 22.72-84-8.64-150.88-14.24-30.24 5.28-66.24 37.44-69.44 62.56-6.24 115.36 4.8 187.2 36.16 57.28-23.2 121.92-36.16 185.76-36.16 253.28 0 460.8 193.12 460.8 434.4s-207.52 434.4-460.8 434.4zM767.36 254.24c-68-63.84-158.72-99.040-255.36-99.040-49.6 0-101.92 10.080-147.040 28.64l-40 16.32-39.68-17.28c-24.16-10.56-44.48-17.92-63.040-22.72 15.52 74.72-2.56 129.6-24.16 165.44-29.12 48.64-44.48 104.48-44.48 161.6 0 87.84 36.64 170.56 103.040 232.96 68 63.84 158.72 99.040 255.36 99.040s187.36-35.2 255.36-98.88c66.4-62.4 103.040-145.12 103.040-232.96 0-88-36.64-170.72-103.040-233.12z" />
<glyph unicode="&#xe9c0;" d="M819.2 870.24h-614.4c-113.12 0-204.8-89.28-204.8-204.8v-614.24c0-43.040 47.84-66.56 81.6-40.8l193.6 143.040h544c113.12 0 204.8 89.28 204.8 204.8v307.2c0 115.52-91.68 204.8-204.8 204.8zM921.6 358.4c0-57.44-44.96-102.4-102.4-102.4h-577.76l-139.040-102.88v512.48c0 57.44 44.96 102.4 102.4 102.4h614.4c57.44 0 102.4-44.96 102.4-102.4v-307.2z" />
<glyph unicode="&#xe9c1;" d="M307.2 460.8c-28.32 0-51.2 22.88-51.2 51.2s22.88 51.2 51.2 51.2 51.2-22.88 51.2-51.2-22.88-51.2-51.2-51.2zM512 460.8c-28.32 0-51.2 22.88-51.2 51.2s22.88 51.2 51.2 51.2 51.2-22.88 51.2-51.2-22.88-51.2-51.2-51.2zM716.8 460.8c-28.32 0-51.2 22.88-51.2 51.2s22.88 51.2 51.2 51.2 51.2-22.88 51.2-51.2-22.88-51.2-51.2-51.2z" />
<glyph unicode="&#xe9c2;" d="M819.2 921.6h-614.4c-113.12 0-204.8-98.4-204.8-204.8v-384c0-106.4 91.68-179.2 204.8-179.2h128l142.4-139.52c20-18.88 52-18.72 72 0l144 139.52h128c113.12 0 204.8 72.8 204.8 179.2v384c0 106.4-91.68 204.8-204.8 204.8zM921.6 332.8c0-52.8-53.12-76.8-102.4-76.8h-169.6l-137.6-134.4-137.6 134.4h-169.6c-49.28 0-102.4 24-102.4 76.8v384c0 24.96 11.2 50.72 30.88 70.72 11.52 11.84 36.16 31.68 71.52 31.68h614.4c35.36 0 60-19.84 71.52-31.68 19.68-20 30.88-45.76 30.88-70.72v-384z" />
<glyph unicode="&#xe9c3;" d="M768 563.2h-512c-28.32 0-51.2 22.88-51.2 51.2s22.88 51.2 51.2 51.2h512c28.32 0 51.2-22.88 51.2-51.2s-22.88-51.2-51.2-51.2zM614.4 358.4h-358.4c-28.32 0-51.2 22.88-51.2 51.2s22.88 51.2 51.2 51.2h358.4c28.32 0 51.2-22.88 51.2-51.2s-22.88-51.2-51.2-51.2z" />
<glyph unicode="&#xe9c4;" d="M512 921.6c-281.44 0-512-204.8-512-460.64 0-83.040 24.8-163.52 70.4-233.6 7.2-11.2 13.6-36.48 9.6-60.8-4.16-25.12-17.28-49.6-43.2-64-8.16-4.48-36.48-16.96-36.8-51.2s29.28-51.040 51.2-51.2c52-0.48 371.36 0 460.8 0 281.44 0 512 204.8 512 460.64 0 256-230.56 460.8-512 460.8zM512 102.56h-117.28c-69.44 0-152.8-0.16-220.8-0.16h-6.72c6.4 14.88 11.2 30.88 13.92 47.52 7.68 46.080-2.080 98.24-24.64 133.12l-0.16 0.16c-35.2 53.92-53.76 115.36-53.76 177.6-0.16 197.6 183.52 358.4 409.44 358.4s409.6-160.8 409.6-358.24c0-197.6-183.68-358.4-409.6-358.4z" />
<glyph unicode="&#xe9c5;" d="M716.8 512h-409.6c-28.32 0-51.2 22.88-51.2 51.2s22.88 51.2 51.2 51.2h409.6c28.32 0 51.2-22.88 51.2-51.2s-22.88-51.2-51.2-51.2zM563.2 307.2h-256c-28.32 0-51.2 22.88-51.2 51.2s22.88 51.2 51.2 51.2h256c28.32 0 51.2-22.88 51.2-51.2s-22.88-51.2-51.2-51.2z" />
<glyph unicode="&#xe9c6;" d="M448.48 335.2c-19.84 27.040-35.52 50.080-49.28 70.080l-68 99.2c-20.96 30.4-64.48 38.88-95.84 18.72-31.2-20.32-40-62.56-19.2-92.96l68.16-99.2c61.28-89.6 181.12-100.32 259.52-24.16-31.52-4.16-65.6-12.32-95.36 28.32z" />
<glyph unicode="&#xe9c7;" d="M750.4 665.6c-17.44 0-35.68-5.6-48.96-18.56l-253.44-247.52c-17.6-16.96-33.92-16.16-47.68 3.84 0 0 27.68-40.64 47.36-67.68 29.76-40.8 64.16-33.12 96.16-29.12l255.36 245.44c26.56 25.76 26.56 69.12 0 94.88-13.28 13.12-31.52 18.72-48.8 18.72z" />
<glyph unicode="&#xe9c8;" d="M561.12 665.44c-12.96 0-26.56-4.96-36.64-16l-240.16-270.080c-13.12-14.72-26.24-12-36.48 5.28l-51.040 85.28c-15.68 26.080-48.16 33.44-71.52 16s-29.92-53.92-14.4-80l50.88-85.28c45.92-76.96 135.52-86.72 194.080-21.44l241.76 268.32c19.84 22.24 19.84 59.52 0 81.76-9.76 11.2-23.36 16.16-36.48 16.16z" />
<glyph unicode="&#xe9c9;" d="M869.92 665.6c-13.12 0-26.72-4.96-36.64-16l-240.8-270.080c-13.12-14.72-26.4-12-36.64 5.28l-22.4 37.28-74.88-83.52 11.2-17.76c46.080-76.96 135.84-86.72 194.56-21.44l242.4 268.32c19.84 22.24 19.84 59.52 0 81.76-10.080 11.2-23.68 16.16-36.8 16.16z" />
<glyph unicode="&#xe9ca;" d="M403.040 258.88c-12.96 18.4-23.36 34.080-32.32 47.68l-134.24 207.2c-13.76 20.64-42.4 26.4-62.88 12.64s-26.24-42.72-12.64-63.36l134.4-207.040c40.32-60.96 118.88-68.64 170.4-16.96-20.8-2.56-43.2-7.68-62.72 19.84z" />
<glyph unicode="&#xe9cb;" d="M825.28 716.8c-11.36 0-23.36-3.84-32.16-12.64l-390.080-401.6c-11.52-11.68-21.6-12.32-30.72 1.44 0 0 17.76-26.56 30.72-44.96 19.52-27.84 41.92-22.56 62.88-19.68l391.52 400.16c17.44 17.6 17.44 47.2 0 64.8-8.8 8.64-20.8 12.48-32.16 12.48z" />
<glyph unicode="&#xe9cc;" d="M880.16 665.6c-10.4 0-21.44-3.2-29.44-10.24 0 0-423.36-378.24-428.32-381.44 38.72-25.6 91.68-24.48 129.12 9.12l358.080 319.68c16 14.4 16 38.4 0 52.64-8 7.040-18.88 10.24-29.44 10.24z" />
<glyph unicode="&#xe9cd;" d="M649.76 665.6c-10.4 0-20.16-4.32-28.16-11.36l-357.76-318.88c-10.56-9.44-21.12-8.8-29.44 2.24l-57.6 76.64c-12.48 16.8-37.44 21.44-56.16 10.24s-24-33.44-11.52-50.24l57.44-76.48c36.96-49.44 108.96-55.84 156-13.76l356.64 318.88c16 14.24 16 37.12 0 51.52-8 6.88-18.88 11.2-29.44 11.2z" />
<glyph unicode="&#xe9ce;" d="M256 921.6c-113.12 0-204.8-91.68-204.8-204.8v-512c0-113.12 91.68-204.8 204.8-204.8h512c113.12 0 204.8 91.68 204.8 204.8v512c0 113.12-91.68 204.8-204.8 204.8h-512zM256 819.2h512c56.64 0 102.4-45.76 102.4-102.4v-512c0-56.64-45.76-102.4-102.4-102.4h-512c-56.48 0-102.4 45.76-102.4 102.4v512c0 56.64 45.92 102.4 102.4 102.4z" />
<glyph unicode="&#xe9cf;" d="M690.72 614.4c-13.12 0-26.72-4.32-36.64-13.92l-190.080-185.76c-13.12-12.8-26.4-10.4-36.64 4.64l-51.040 74.24c-15.68 22.72-48.32 29.12-71.84 13.92s-30.080-46.88-14.4-69.6l51.040-74.24c46.080-67.040 136-75.68 194.72-18.56l191.52 184.32c19.84 19.36 19.84 51.84 0 71.2-9.92 9.44-23.52 13.76-36.64 13.76z" />
<glyph unicode="&#xe9d0;" d="M256 921.6c-113.12 0-204.8-91.68-204.8-204.8v-512c0-113.12 91.68-204.8 204.8-204.8h512c113.12 0 204.8 91.68 204.8 204.8v204.8c0 28.32-22.88 51.2-51.2 51.2s-51.2-22.88-51.2-51.2v-204.8c0-56.64-45.76-102.4-102.4-102.4h-512c-56.64 0-102.4 45.76-102.4 102.4v512c0 56.64 45.76 102.4 102.4 102.4h409.6c28.32 0 51.2 22.88 51.2 51.2s-22.88 51.2-51.2 51.2h-409.6z" />
<glyph unicode="&#xe9d1;" d="M972.32 870.4c-13.12 0-26.72-4.64-36.8-14.4l-445.76-438.56c-13.12-12.96-26.4-12-36.64 3.2l-51.2 75.2c-15.68 23.040-48.48 29.76-71.84 14.4-23.52-15.36-30.080-47.36-14.4-70.4l51.2-75.2c46.080-68 136.16-77.12 194.88-19.2l447.36 440.16c20 19.68 20 50.72 0 70.4-10.080 9.76-23.68 14.4-36.8 14.4z" />
<glyph unicode="&#xe9d2;" d="M512 921.6c-254.56 0-460.8-206.24-460.8-460.8s206.24-460.8 460.8-460.8 460.8 206.24 460.8 460.8-206.24 460.8-460.8 460.8zM765.44 207.36c-67.68-67.68-157.76-104.96-253.44-104.96s-185.76 37.28-253.44 104.96-104.96 157.76-104.96 253.44 37.28 185.76 104.96 253.44 157.76 104.96 253.44 104.96 185.76-37.28 253.44-104.96 104.96-157.76 104.96-253.44-37.28-185.76-104.96-253.44z" />
<glyph unicode="&#xe9d3;" d="M690.72 614.4c-13.12 0-26.72-4.32-36.64-13.92l-190.080-185.76c-13.12-12.8-26.4-10.4-36.64 4.64l-51.040 74.24c-15.68 22.72-48.32 29.12-71.84 13.92s-30.080-46.88-14.4-69.6l51.040-74.24c46.080-67.040 136-75.68 194.72-18.56l191.52 184.32c19.84 19.36 19.84 51.84 0 71.2-9.92 9.44-23.52 13.76-36.64 13.76z" />
<glyph unicode="&#xe9d4;" d="M513.44 972.8c-283.52 0-513.44-229.28-513.44-512s229.92-512 513.44-512c260.8 0 479.68 195.040 510.24 451.2 3.36 28.16-16.8 54.24-44.96 57.6-28.16 3.2-54.4-16.8-57.76-44.8-24.32-204.8-198.88-361.6-407.52-361.6-226.88 0-410.72 183.36-410.72 409.6s183.84 409.6 410.72 409.6c47.36 0 94.24-8.48 138.080-24 26.72-9.44 54.72 5.44 64.16 32 9.44 26.72-3.84 56.16-30.56 65.6-54.72 19.36-112.64 28.8-171.68 28.8z" />
<glyph unicode="&#xe9d5;" d="M972.32 870.4c-13.12 0-26.72-4.64-36.8-14.4l-445.76-440.16c-13.12-12.96-26.4-10.4-36.64 4.8l-51.2 75.2c-15.68 23.040-48.48 29.76-71.84 14.4-23.52-15.36-30.080-47.36-14.4-70.4l51.2-75.2c46.080-68 136.16-77.12 194.88-19.2l447.36 438.56c20 19.68 20 52.32 0 72-10.080 9.92-23.68 14.4-36.8 14.4z" />
<glyph unicode="&#xe9d6;" d="M153.6 460.8c0-28.32 22.88-51.2 51.2-51.2h614.4c28.32 0 51.2 22.88 51.2 51.2s-22.88 51.2-51.2 51.2h-614.4c-28.32 0-51.2-22.88-51.2-51.2z" />
<glyph unicode="&#xe9d7;" d="M195.68 53.28c-12.8 2.56-25.76 9.12-33.6 20.8-15.68 23.36-9.12 56.16 14.4 71.68l305.76 204.16c17.28 11.36 40.48 11.36 57.6 0l307.52-204.16c23.52-15.52 30.080-48.48 14.4-71.68-15.68-23.36-48.48-29.92-72-14.4l-278.56 184.96-276.96-184.96c-11.84-7.84-25.6-8.96-38.56-6.4zM828.32 868.32c12.8-2.56 25.76-9.12 33.6-20.8 15.68-23.36 9.12-56.16-14.4-71.68l-305.92-204.16c-17.28-11.36-40.48-11.36-57.6 0l-307.52 204.16c-23.52 15.52-30.080 48.48-14.4 71.68 15.68 23.36 48.48 29.92 72 14.4l278.56-184.96 277.12 184.96c11.84 7.84 25.6 8.96 38.56 6.4z" />
<glyph unicode="&#xe9d8;" d="M153.6 460.8c0-28.32 22.88-51.2 51.2-51.2h614.4c28.32 0 51.2 22.88 51.2 51.2s-22.88 51.2-51.2 51.2h-614.4c-28.32 0-51.2-22.88-51.2-51.2z" />
<glyph unicode="&#xe9d9;" d="M828.32 356.32c12.8-2.56 25.76-9.12 33.6-20.8 15.68-23.36 9.12-56.16-14.4-71.68l-305.92-204.16c-17.28-11.36-40.48-11.36-57.6 0l-307.52 204.16c-23.52 15.52-30.080 48.48-14.4 71.68 15.68 23.36 48.48 29.92 72 14.4l278.56-184.96 277.12 184.96c11.84 7.84 25.6 8.96 38.56 6.4zM195.68 565.28c-12.8 2.56-25.76 9.12-33.6 20.8-15.68 23.36-9.12 56.16 14.4 71.68l305.92 204.16c17.28 11.36 40.48 11.36 57.6 0l307.52-204.16c23.52-15.52 30.080-48.48 14.4-71.68-15.68-23.36-48.48-29.92-72-14.4l-278.72 184.96-276.96-184.96c-11.84-7.84-25.6-8.96-38.56-6.4z" />
<glyph unicode="&#xe9da;" d="M153.6 665.6c0-28.32 22.88-51.2 51.2-51.2h614.4c28.32 0 51.2 22.88 51.2 51.2s-22.88 51.2-51.2 51.2h-614.4c-28.32 0-51.2-22.88-51.2-51.2z" />
<glyph unicode="&#xe9db;" d="M195.68 206.88c-12.8 2.56-25.76 9.12-33.6 20.8-15.68 23.36-9.12 56.16 14.4 71.68l305.76 204.16c17.28 11.36 40.48 11.36 57.6 0l307.52-204.16c23.52-15.52 30.080-48.48 14.4-71.68-15.68-23.36-48.48-29.92-72-14.4l-278.56 184.96-276.96-184.96c-11.84-7.84-25.6-8.96-38.56-6.4z" />
<glyph unicode="&#xe9dc;" d="M153.6 256c0 28.32 22.88 51.2 51.2 51.2h614.4c28.32 0 51.2-22.88 51.2-51.2s-22.88-51.2-51.2-51.2h-614.4c-28.32 0-51.2 22.88-51.2 51.2z" />
<glyph unicode="&#xe9dd;" d="M195.68 714.72c-12.8-2.56-25.76-9.12-33.6-20.8-15.68-23.36-9.12-56.16 14.4-71.68l305.76-204.16c17.28-11.36 40.48-11.36 57.6 0l307.52 204.16c23.52 15.52 30.080 48.48 14.4 71.68-15.68 23.36-48.48 29.92-72 14.4l-278.56-184.96-276.96 184.96c-11.84 7.84-25.6 8.96-38.56 6.4z" />
<glyph unicode="&#xe9de;" d="M307.2 102.4c28.32 0 51.2 22.88 51.2 51.2v614.4c0 28.32-22.88 51.2-51.2 51.2s-51.2-22.88-51.2-51.2v-614.4c0-28.32 22.88-51.2 51.2-51.2z" />
<glyph unicode="&#xe9df;" d="M765.92 144.48c-2.56-12.8-9.12-25.76-20.8-33.6-23.36-15.68-56.16-9.12-71.68 14.4l-204.16 305.76c-11.36 17.28-11.36 40.48 0 57.6l204.16 307.52c15.52 23.52 48.48 30.080 71.68 14.4 23.36-15.68 29.92-48.48 14.4-72l-184.96-278.56 184.96-276.96c7.84-11.84 8.96-25.6 6.4-38.56z" />
<glyph unicode="&#xe9e0;" d="M716.8 819.2c-28.32 0-51.2-22.88-51.2-51.2v-614.4c0-28.32 22.88-51.2 51.2-51.2s51.2 22.88 51.2 51.2v614.4c0 28.32-22.88 51.2-51.2 51.2z" />
<glyph unicode="&#xe9e1;" d="M258.080 777.12c2.56 12.8 9.12 25.76 20.8 33.6 23.36 15.68 56.16 9.12 71.68-14.4l204.16-305.76c11.36-17.28 11.36-40.48 0-57.6l-204.16-307.52c-15.52-23.52-48.48-30.080-71.68-14.4-23.36 15.68-29.92 48.48-14.4 72l184.96 278.56-184.96 276.96c-7.84 11.84-8.96 25.6-6.4 38.56z" />
<glyph unicode="&#xe9e2;" d="M862.56 746.56c6.88-10.56 9.44-23.36 6.88-36.32s-9.6-23.84-20.16-30.88l-310.88-210.56c-7.68-5.28-16.8-8-26.4-8s-18.72 2.72-26.4 8l-310.88 210.72c-10.4 7.040-17.6 18.080-20.16 30.88s-0.16 25.76 6.88 36.16c8.64 13.12 23.040 17.76 30.88 19.36 3.84 0.8 7.52 1.12 11.2 1.12 9.12 0 17.12-2.4 24-7.040l284.48-196.8 284.48 196.96c7.68 5.12 16.64 7.84 26.080 7.84 16.16 0 31.2-8 40-21.44z" />
<glyph unicode="&#xe9e3;" d="M862.56 439.36c6.88-10.56 9.44-23.36 6.88-36.32s-9.6-23.84-20.16-30.88l-310.88-210.56c-7.68-5.28-16.8-8-26.4-8s-18.72 2.72-26.4 8l-310.88 210.72c-10.4 7.040-17.6 18.080-20.16 30.88s-0.16 25.76 6.88 36.16c8.64 13.12 23.040 17.76 30.88 19.36 3.84 0.8 7.52 1.12 11.2 1.12 9.12 0 17.12-2.4 24-7.040l284.48-196.8 284.48 196.96c7.68 5.12 16.64 7.84 26.080 7.84 16.16 0 31.2-8 40-21.44z" />
<glyph unicode="&#xe9e4;" d="M862.56 175.040c6.88 10.56 9.44 23.36 6.88 36.32s-9.6 23.84-20.16 30.88l-310.88 210.56c-7.68 5.28-16.8 8-26.4 8s-18.72-2.72-26.4-8l-310.88-210.72c-10.4-7.040-17.6-18.080-20.16-30.88s-0.16-25.76 6.88-36.16c8.64-13.12 23.040-17.76 30.88-19.36 3.84-0.8 7.52-1.12 11.2-1.12 9.12 0 17.12 2.4 24 7.040l284.48 196.8 284.48-196.96c7.68-5.12 16.64-7.84 26.080-7.84 16.16 0 31.2 8 40 21.44z" />
<glyph unicode="&#xe9e5;" d="M862.56 482.24c6.88 10.56 9.44 23.36 6.88 36.32s-9.6 23.84-20.16 30.88l-310.88 210.56c-7.68 5.28-16.8 8-26.4 8s-18.72-2.72-26.4-8l-310.88-210.72c-10.4-7.040-17.6-18.080-20.16-30.88s-0.16-25.76 6.88-36.16c8.64-13.12 23.040-17.76 30.88-19.36 3.84-0.8 7.52-1.12 11.2-1.12 9.12 0 17.12 2.4 24 7.040l284.48 196.8 284.48-196.96c7.68-5.12 16.64-7.84 26.080-7.84 16.16 0 31.2 8 40 21.44z" />
<glyph unicode="&#xe9e6;" d="M797.76 110.24c-10.56-6.88-23.36-9.44-36.32-6.88s-23.84 9.6-30.88 20.16l-210.56 310.88c-5.28 7.68-8 16.8-8 26.4s2.72 18.72 8 26.4l210.72 310.88c7.040 10.4 18.080 17.6 30.88 20.16s25.76 0.16 36.16-6.88c13.12-8.64 17.76-23.040 19.36-30.88 0.8-3.84 1.12-7.52 1.12-11.2 0-9.12-2.4-17.12-7.040-24l-196.8-284.48 196.96-284.48c5.12-7.68 7.84-16.64 7.84-26.080 0-16.16-8-31.2-21.44-40z" />
<glyph unicode="&#xe9e7;" d="M490.56 110.24c-10.56-6.88-23.36-9.44-36.32-6.88s-23.84 9.6-30.88 20.16l-210.56 310.88c-5.28 7.68-8 16.8-8 26.4s2.72 18.72 8 26.4l210.72 310.88c7.040 10.4 18.080 17.6 30.88 20.16s25.76 0.16 36.16-6.88c13.12-8.64 17.76-23.040 19.36-30.88 0.8-3.84 1.12-7.52 1.12-11.2 0-9.12-2.4-17.12-7.040-24l-196.8-284.48 196.96-284.48c5.12-7.68 7.84-16.64 7.84-26.080 0-16.16-8-31.2-21.44-40z" />
<glyph unicode="&#xe9e8;" d="M226.24 811.36c10.56 6.88 23.36 9.44 36.32 6.88s23.84-9.6 30.88-20.16l210.56-310.88c5.28-7.68 8-16.8 8-26.4s-2.72-18.72-8-26.4l-210.72-310.88c-7.040-10.4-18.080-17.6-30.88-20.16s-25.76-0.16-36.16 6.88c-13.12 8.64-17.76 23.040-19.36 30.88-0.8 3.84-1.12 7.52-1.12 11.2 0 9.12 2.4 17.12 7.040 24l196.8 284.48-196.96 284.48c-5.12 7.68-7.84 16.64-7.84 26.080 0 16.16 8 31.2 21.44 40z" />
<glyph unicode="&#xe9e9;" d="M533.44 811.36c10.56 6.88 23.36 9.44 36.32 6.88s23.84-9.6 30.88-20.16l210.56-310.88c5.28-7.68 8-16.8 8-26.4s-2.72-18.72-8-26.4l-210.72-310.88c-7.040-10.4-18.080-17.6-30.88-20.16s-25.76-0.16-36.16 6.88c-13.12 8.64-17.76 23.040-19.36 30.88-0.8 3.84-1.12 7.52-1.12 11.2 0 9.12 2.4 17.12 7.040 24l196.8 284.48-196.96 284.48c-5.12 7.68-7.84 16.64-7.84 26.080 0 16.16 8 31.2 21.44 40z" />
<glyph unicode="&#xe9ea;" d="M903.2 685.12l-368.16-268c-6.88-4.96-14.88-7.52-23.040-7.52s-16.16 2.56-23.040 7.52l-368.16 268c-18.88 13.6-24 42.4-11.52 62.88s38.72 26.24 57.6 12.64l345.12-248.64 345.28 248.64c18.72 13.6 44.96 7.84 57.6-12.64 12.48-20.48 7.2-49.12-11.68-62.88z" />
<glyph unicode="&#xe9eb;" d="M903.2 429.12l-368.16-268c-6.88-4.96-14.88-7.52-23.040-7.52s-16.16 2.56-23.040 7.52l-368.16 268c-18.88 13.6-24 42.4-11.52 62.88s38.72 26.24 57.6 12.64l345.12-248.64 345.28 248.64c18.72 13.6 44.96 7.84 57.6-12.64 12.48-20.48 7.2-49.12-11.68-62.88z" />
<glyph unicode="&#xe9ec;" d="M903.2 236.48l-368.16 268c-6.88 4.96-14.88 7.52-23.040 7.52s-16.16-2.56-23.040-7.52l-368.16-268c-18.88-13.6-24-42.4-11.52-62.88s38.72-26.24 57.6-12.64l345.12 248.64 345.28-248.64c18.72-13.6 44.96-7.84 57.6 12.64 12.48 20.48 7.2 49.12-11.68 62.88z" />
<glyph unicode="&#xe9ed;" d="M903.2 492.48l-368.16 268c-6.88 4.96-14.88 7.52-23.040 7.52s-16.16-2.56-23.040-7.52l-368.16-268c-18.88-13.6-24-42.4-11.52-62.88s38.72-26.24 57.6-12.64l345.12 248.64 345.28-248.64c18.72-13.6 44.96-7.84 57.6 12.64 12.48 20.48 7.2 49.12-11.68 62.88z" />
<glyph unicode="&#xe9ee;" d="M736.32 69.6l-268 368.16c-4.96 6.88-7.52 14.88-7.52 23.040s2.56 16.16 7.52 23.040l268 368.16c13.6 18.88 42.4 24 62.88 11.52s26.24-38.72 12.64-57.6l-248.64-345.12 248.64-345.28c13.6-18.72 7.84-44.96-12.64-57.6-20.48-12.48-49.12-7.2-62.88 11.68z" />
<glyph unicode="&#xe9ef;" d="M480.32 69.6l-268 368.16c-4.96 6.88-7.52 14.88-7.52 23.040s2.56 16.16 7.52 23.040l268 368.16c13.6 18.88 42.4 24 62.88 11.52s26.24-38.72 12.64-57.6l-248.64-345.12 248.64-345.28c13.6-18.72 7.84-44.96-12.64-57.6-20.48-12.48-49.12-7.2-62.88 11.68z" />
<glyph unicode="&#xe9f0;" d="M287.68 852l268-368.16c4.96-6.88 7.52-14.88 7.52-23.040s-2.56-16.16-7.52-23.040l-268-368.16c-13.6-18.88-42.4-24-62.88-11.52s-26.24 38.72-12.64 57.6l248.64 345.12-248.64 345.28c-13.6 18.72-7.84 44.96 12.64 57.6 20.48 12.48 49.12 7.2 62.88-11.68z" />
<glyph unicode="&#xe9f1;" d="M543.68 852l268-368.16c4.96-6.88 7.52-14.88 7.52-23.040s-2.56-16.16-7.52-23.040l-268-368.16c-13.6-18.88-42.4-24-62.88-11.52s-26.24 38.72-12.64 57.6l248.64 345.12-248.64 345.28c-13.6 18.72-7.84 44.96 12.64 57.6 20.48 12.48 49.12 7.2 62.88-11.68z" />
<glyph unicode="&#xe9f2;" glyph-name="chevron_down" data-tags="chevron_down" d="M861.92 591.52c-15.68 23.52-48.32 30.080-71.84 14.4l-278.080-184.96-277.92 184.96c-11.68 7.84-25.44 8.96-38.4 6.4-12.8-2.56-25.76-8.96-33.6-20.8-15.68-23.52-9.12-56.16 14.4-71.68l189.6-126.24 116.96-78.56c8.64-5.28 18.56-7.84 28.64-7.84s20.16 2.56 28.64 7.84l117.12 78.56 189.6 126.24c24 15.52 30.56 48.32 14.88 71.68z" />
<glyph unicode="&#xe9f3;" glyph-name="chevron_up" data-tags="chevron_up" d="M861.92 330.080c-15.68-23.52-48.32-30.080-71.84-14.4l-278.080 184.96-277.92-184.96c-11.68-7.84-25.44-8.96-38.4-6.4-12.8 2.56-25.76 8.96-33.6 20.8-15.68 23.52-9.12 56.16 14.4 71.68l189.6 126.24 116.96 78.56c8.64 5.28 18.56 7.84 28.64 7.84s20.16-2.56 28.64-7.84l117.12-78.56 189.6-126.24c24-15.52 30.56-48.32 14.88-71.68z" />
<glyph unicode="&#xe9f4;" glyph-name="chevron_left" data-tags="chevron_left" d="M642.72 110.88c23.52 15.68 30.080 48.32 14.4 71.84l-184.96 278.080 184.96 277.92c7.84 11.68 8.96 25.44 6.4 38.4-2.56 12.8-8.96 25.76-20.8 33.6-23.52 15.68-56.16 9.12-71.68-14.4l-126.24-189.6-78.56-116.96c-5.28-8.64-7.84-18.56-7.84-28.64s2.56-20.16 7.84-28.64l78.56-117.12 126.24-189.6c15.52-24 48.32-30.56 71.68-14.88z" />
<glyph unicode="&#xe9f5;" glyph-name="chevron_right" data-tags="chevron_right" d="M381.28 810.72c-23.52-15.68-30.080-48.32-14.4-71.84l184.96-278.080-184.96-277.92c-7.84-11.68-8.96-25.44-6.4-38.4 2.56-12.8 8.96-25.76 20.8-33.6 23.52-15.68 56.16-9.12 71.68 14.4l126.24 189.6 78.56 116.96c5.28 8.64 7.84 18.56 7.84 28.64s-2.56 20.16-7.84 28.64l-78.56 117.12-126.24 189.6c-15.52 24-48.32 30.56-71.68 14.88z" />
<glyph unicode="&#xe9f6;" glyph-name="chevron_down_alt" data-tags="chevron_down_alt" d="M42.080 663.52c-12.8-2.56-25.76-9.12-33.6-20.8-15.68-23.36-9.12-56.16 14.4-71.84l460.32-306.24c17.28-11.36 40.32-11.36 57.6 0l460.32 306.4c23.52 15.68 30.080 48.48 14.4 71.84s-48.48 29.92-72 14.4l-431.52-287.36-431.52 287.2c-11.84 7.84-25.6 8.96-38.4 6.4z" />
<glyph unicode="&#xe9f7;" glyph-name="chevron_up_alt" data-tags="chevron_up_alt" d="M42.080 258.080c-12.8 2.56-25.76 9.12-33.6 20.8-15.68 23.36-9.12 56.16 14.4 71.84l460.32 306.24c17.28 11.36 40.32 11.36 57.6 0l460.32-306.4c23.52-15.68 30.080-48.48 14.4-71.84s-48.48-29.92-72-14.4l-431.52 287.36-431.52-287.2c-11.84-7.84-25.6-8.96-38.4-6.4z" />
<glyph unicode="&#xe9f8;" glyph-name="chevron_left_alt" data-tags="chevron_left_alt" d="M714.72 930.72c-2.56 12.8-9.12 25.76-20.8 33.6-23.36 15.68-56.16 9.12-71.84-14.4l-306.24-460.32c-11.36-17.28-11.36-40.32 0-57.6l306.4-460.32c15.68-23.52 48.48-30.080 71.84-14.4s29.92 48.48 14.4 72l-287.36 431.52 287.2 431.52c7.84 11.84 8.96 25.6 6.4 38.4z" />
<glyph unicode="&#xe9f9;" glyph-name="chevron_right_alt" data-tags="chevron_right_alt" d="M309.28-9.12c2.56-12.8 9.12-25.76 20.8-33.6 23.36-15.68 56.16-9.12 71.84 14.4l306.24 460.32c11.36 17.28 11.36 40.32 0 57.6l-306.4 460.32c-15.68 23.52-48.48 30.080-71.84 14.4s-29.92-48.48-14.4-72l287.36-431.52-287.2-431.52c-7.84-11.84-8.96-25.6-6.4-38.4z" />
</font>
</defs>
</svg>
